Шрек: Повне зібрання / Shrek: Full Collection (2001-2011) // 720p Ukr/Eng | Sub Eng

Нові коментарі

Нова тема   Відповісти
Сторінка:  1, 2  наступна
Автор Повідомлення
abodnya 
Відео Гуртом - фільмокрай
Відео Гуртом - фільмокрай


З нами з: 02.11.08
Востаннє: 21.08.17
Повідомлень: 5959

2010-11-19 23:45  
Шрек: Повне зібрання / Shrek: Full Collection (2001-2011) // 720p Ukr/Eng | Sub Eng



Жанр: пригодницький, комедія, фентезі
Країна: США
Шрек / Shrek (2001) 720p 3xUkr/Eng | Sub Eng
Шрек / Shrek (2001) 720p 3xUkr/Eng | Sub Eng




Кіностудія / кінокомпанія: DreamWorks
Режисер: Ендрю Адамсон, Вікі Дженсон
Сюжет:
Жив-був у казковому царстві зелений велетень на ім?я Шрек. Жив він гордою самотою в лісі, на болоті, яке він вважав своїм. Але одного разу злий карлик лорд Фаркуад, володар казкового королівства, безжалісно зігнав всіх казкових мешканців на болото Шрека. І безтурботному життю зеленого троля настав кінець. Але лорд Фаркуад пообіцяв повернути Шреку болото, якщо велетень здобуде йому прекрасну принцесу Фіону, яка мориться у неприступній вежі, яку охороняє вогнедишний дракон...


Тривалість: 01:30:05
Якість:
Відео:
кодек:
розмір кадру: 1280x720
бітрейт: 5429 кб/с

Аудіо # 1:
мова: українська [ICTV]
переклад: професійний дубльований
кодек: 5.1
бітрейт: 640 кб/с

Аудіо # 2:
мова: українська [Інтер]
переклад: багатоголосий закадровий
кодек: 5.1
бітрейт: 640 кб/с

Аудіо # 3:
мова: українська [Новий Канал]
переклад: двоголосий закадровий
кодек: 5.1
бітрейт: 640 кб/с

Аудіо # 4:
мова: англійська
переклад: оригінал
кодек:
бітрейт: 1510 кб/с

Аудіо # 5:
мова: білоруська Завантажити окремим файлом
переклад: багатоголосий закадровий
кодек: 2.0
бітрейт: 192 кб/с

Переклад виконано і озвучено:
(Дубляж) & &

Субтитри:
мова: англійська
тип: пререндерні
формат: *.srt

Скріншоти:

Info
General
Unique ID : 173016235830697656897036904921082486631 (0x8229B706A5379534B542E048CFF9DF67)
Complete name : /media/WD_2TB/Releases/Shrek Quadrlogy 720p/COMPLETE/Shrek Full Collection (2001-2011) [Ukr.Eng, Sub Ukr.Eng] 720p [Hurtom.com]/Shrek (2001) [3xUkr.Eng, Sub Eng] 720p [Hurtom.com].
Format :
Format version : Version 2
File size : 5.58 GiB
Duration : 1h 30mn
Overall bit rate : 8 862 Kbps
Movie name : ~Sahaa~
Encoded date : UTC 2012-07-08 00:55:37
Writing application : mkvmerge v2.9.8 ('C'est le bon') built on Aug 24 2009 17:34:03
Writing library : libebml v0.7.7 + libmatroska v0.8.1

Video
ID : 1
Format : AVC
Format/Info : Advanced Video Codec
Format profile : [email protected]
Format settings, CABAC : Yes
Format settings, ReFrames : 8 frames
Codec ID : V_MPEG4/ISO/AVC
Duration : 1h 30mn
Bit rate : 5 429 Kbps
Width : 1 280 pixels
Height : 720 pixels
Display aspect ratio : 16:9
Frame rate mode : Constant
Frame rate : 23.976 fps
Color space : YUV
Chroma subsampling : 4:2:0
Bit depth : 8 bits
Scan type : Progressive
Bits/(Pixel*Frame) : 0.246
Stream size : 3.31 GiB (59%)
Title : Hurtom.com
Writing library : core 107 r1745 4785e8e
Encoding settings : cabac=1 / ref=9 / deblock=1:-3:-3 / analyse=0x3:0x113 / me=tesa / subme=10 / psy=1 / psy_rd=0.90:0.00 / mixed_ref=1 / me_range=64 / chroma_me=1 / trellis=2 / 8x8dct=1 / cqm=0 / deadzone=21,11 / fast_pskip=0 / chroma_qp_offset=-2 / threads=12 / sliced_threads=0 / nr=0 / decimate=1 / interlaced=0 / constrained_intra=0 / bframes=6 / b_pyramid=1 / b_adapt=2 / b_bias=0 / direct=3 / weightb=1 / open_gop=0 / weightp=2 / keyint=250 / keyint_min=23 / scenecut=40 / intra_refresh=0 / rc_lookahead=40 / rc=2pass / mbtree=1 / bitrate=5429 / ratetol=1.0 / qcomp=0.60 / qpmin=10 / qpmax=51 / qpstep=4 / cplxblur=20.0 / qblur=0.5 / ip_ratio=1.40 / aq=1:0.80
Language : English
Default : Yes
Forced : No

Audio #1
ID : 2
Format : AC-3
Format/Info : Audio Coding 3
Mode extension : CM (complete main)
Format settings, Endianness : Big
Codec ID : A_AC3
Duration : 1h 30mn
Bit rate mode : Constant
Bit rate : 640 Kbps
Channel(s) : 6 channels
Channel positions : Front: L C R, Side: L R, LFE
Sampling rate : 48.0 KHz
Bit depth : 16 bits
Compression mode : Lossy
Stream size : 412 MiB (7%)
Title : 5.1 @ 640 kbps - Дубльований
Language : Ukrainian
Default : Yes
Forced : No

Audio #2
ID : 3
Format : AC-3
Format/Info : Audio Coding 3
Mode extension : CM (complete main)
Format settings, Endianness : Big
Codec ID : A_AC3
Duration : 1h 30mn
Bit rate mode : Constant
Bit rate : 640 Kbps
Channel(s) : 6 channels
Channel positions : Front: L C R, Side: L R, LFE
Sampling rate : 48.0 KHz
Bit depth : 16 bits
Compression mode : Lossy
Stream size : 412 MiB (7%)
Title : 5.1 @ 640 kbps - Інтер
Language : Ukrainian
Default : No
Forced : No

Audio #3
ID : 4
Format : AC-3
Format/Info : Audio Coding 3
Mode extension : CM (complete main)
Format settings, Endianness : Big
Codec ID : A_AC3
Duration : 1h 30mn
Bit rate mode : Constant
Bit rate : 640 Kbps
Channel(s) : 6 channels
Channel positions : Front: L C R, Side: L R, LFE
Sampling rate : 48.0 KHz
Bit depth : 16 bits
Compression mode : Lossy
Stream size : 412 MiB (7%)
Title : 5.1 @ 640 kbps - Новий Канал
Language : Ukrainian
Default : No
Forced : No

Audio #4
ID : 5
Format :
Format/Info : Digital Theater Systems
Mode : 16
Format settings, Endianness : Big
Codec ID : A_DTS
Duration : 1h 30mn
Bit rate mode : Constant
Bit rate : 1 510 Kbps
Channel(s) : 6 channels
Channel positions : Front: L C R, Side: L R, LFE
Sampling rate : 48.0 KHz
Bit depth : 24 bits
Compression mode : Lossy
Stream size : 973 MiB (17%)
Title : 5.1 @ 1536 kbps
Language : English
Default : No
Forced : No

Text
ID : 6
Format : UTF-8
Codec ID : S_TEXT/UTF8
Codec ID/Info : UTF-8 Plain Text
Title : ENG
Language : English
Default : No
Forced : No
Шрек 3D / Shrek 3D (2003) 720p Ukr/Eng
Шрек 3D / Shrek 3D (2003) 720p Ukr/Eng




Кіностудія / кінокомпанія: DreamWorks
Режисер: Джефрі Катценберг
Сюжет:
Цей фільм є продовженням першої частини "Шрека". Як ми пам'ятаємо, в кінці фільму дракон проковтнув лорда Фаркуада. Але владолюбний лорд не здався, і його привид все-таки зміг вибратися з утроби вогнедишного дракона. Пригнічуваний бажанням будь-що-будь стати королем, він знову вирушає на пошуки принцеси Фіони. Дізнавшись, де вона знаходиться, він посилає свого ката Полонія, щоб той її вкрав. Після того, як принцеса була викрадена прямо з-під носа, Шрек та його вірний Віслюк вирушають на пошуки Фіони.


Тривалість: 00:14:34
Якість: 720p (апскейл, фільтр повищення чіткості)
Відео:
кодек:
розмір кадру: 1280x576
бітрейт: 3037 кб/с

Аудіо # 1:
мова: українська
переклад: багатоголосий закадровий
кодек: 2.0
бітрейт: 192 кб/с

Аудіо # 2:
мова: англійська
переклад: оригінал
кодек: 5.1
бітрейт: 448 кб/с

Переклад виконано і озвучено:


Скріншоти:

Info
General
Unique ID : 219565374926526536335220225991952569712 (0xA52EC0C6B737677594BCD24D1D801570)
Complete name : /media/WD_2TB/Releases/Shrek Quadrlogy 720p/COMPLETE/Shrek Full Collection (2001-2011) [Ukr.Eng, Sub Ukr.Eng] 720p [Hurtom.com]/Shrek 3D (2003) [Ukr.Eng] 720p [Hurtom.com].
Format :
Format version : Version 2
File size : 325 MiB
Duration : 14mn 37s
Overall bit rate : 3 110 Kbps
Encoded date : UTC 2011-01-03 20:27:41
Writing application : mkvmerge v2.9.8 ('C'est le bon') built on Aug 24 2009 17:34:03
Writing library : libebml v0.7.7 + libmatroska v0.8.1

Video
ID : 1
Format : AVC
Format/Info : Advanced Video Codec
Format profile : [email protected]
Format settings, CABAC : Yes
Format settings, ReFrames : 5 frames
Codec ID : V_MPEG4/ISO/AVC
Duration : 14mn 37s
Bit rate : 2 472 Kbps
Width : 1 280 pixels
Height : 576 pixels
Display aspect ratio : 2.222
Frame rate mode : Constant
Frame rate : 25.000 fps
Color space : YUV
Chroma subsampling : 4:2:0
Bit depth : 8 bits
Scan type : Progressive
Bits/(Pixel*Frame) : 0.134
Stream size : 258 MiB (79%)
Default : Yes
Forced : No

Audio #1
ID : 2
Format : AC-3
Format/Info : Audio Coding 3
Mode extension : CM (complete main)
Format settings, Endianness : Big
Codec ID : A_AC3
Duration : 14mn 37s
Bit rate mode : Constant
Bit rate : 192 Kbps
Channel(s) : 2 channels
Channel positions : Front: L R
Sampling rate : 48.0 KHz
Bit depth : 16 bits
Compression mode : Lossy
Stream size : 20.1 MiB (6%)
Language : Ukrainian
Default : Yes
Forced : No

Audio #2
ID : 3
Format : AC-3
Format/Info : Audio Coding 3
Mode extension : CM (complete main)
Format settings, Endianness : Big
Codec ID : A_AC3
Duration : 14mn 37s
Bit rate mode : Constant
Bit rate : 384 Kbps
Channel(s) : 6 channels
Channel positions : Front: L C R, Side: L R, LFE
Sampling rate : 48.0 KHz
Bit depth : 16 bits
Compression mode : Lossy
Stream size : 40.1 MiB (12%)
Language : English
Default : No
Forced : No
Шрек 2 / Shrek 2 (2004) 720p 3xUkr/Eng | Sub Eng
Шрек 2 / Shrek 2 (2004) 720p 3xUkr/Eng | Sub Eng




Кіностудія / кінокомпанія: DreamWorks
Режисер: Ендрю Адамсон, Келлі Есбері
Сюжет:
Після медового місяця людожер Шрек та його наречена отримують запрошення від батьків Фіони ? короля Харольда та королеви Ліліан. Однак царські особи просто в шоці, що їх дочка не тільки обрала в чоловіки людожера, але й сама перетворилась на монстра. Та їм на допомогу приходить добра хресна-фея, яка взялася повернути Фіоні людську подобу й причарувати її до принца Красеня, якого їй обрали батьки. Ну а на Шрека натравлюють легендарного вбивцю людожерів ? Кота в чоботях...


Тривалість: 01:32:24
Якість:
Відео:
кодек:
розмір кадру: 1280x720
бітрейт: 5257 кб/с

Аудіо # 1:
мова: українська [Інтер]
переклад: багатоголосий закадровий
кодек: 5.1
бітрейт: 640 кб/с

Аудіо # 2:
мова: українська [1+1]
переклад: багатоголосий закадровий
кодек: 5.1
бітрейт: 640 кб/с

Аудіо # 3:
мова: українська [Новий Канал]
переклад: двоголосий закадровий
кодек: 5.1
бітрейт: 640 кб/с

Аудіо # 4:
мова: англійська
переклад: оригінал
кодек:
бітрейт: 1510 кб/с

Аудіо # 5:
мова: білоруська Завантажити окремим файлом
переклад: багатоголосий закадровий
кодек: 2.0
бітрейт: 192 кб/с

Переклад виконано і озвучено:
& та

Субтитри:
мова: англійська
тип: пререндерні
формат: *.srt

Скріншоти:

Info
General
Unique ID : 245995265424929342406438457969680525230 (0xB910F6FC3609AEE49C9E0755EF1727AE)
Complete name : /media/WD_2TB/Releases/Shrek Quadrlogy 720p/COMPLETE/Shrek Full Collection (2001-2011) [Ukr.Eng, Sub Ukr.Eng] 720p [Hurtom.com]/Shrek 2 (2004) [3xUkr.Eng, Sub Eng] 720p [Hurtom.com].
Format :
Format version : Version 2
File size : 5.61 GiB
Duration : 1h 32mn
Overall bit rate : 8 690 Kbps
Movie name : ~Sahaa~
Encoded date : UTC 2012-07-08 01:04:00
Writing application : mkvmerge v2.9.8 ('C'est le bon') built on Aug 24 2009 17:34:03
Writing library : libebml v0.7.7 + libmatroska v0.8.1

Video
ID : 1
Format : AVC
Format/Info : Advanced Video Codec
Format profile : [email protected]
Format settings, CABAC : Yes
Format settings, ReFrames : 8 frames
Codec ID : V_MPEG4/ISO/AVC
Duration : 1h 32mn
Bit rate : 5 257 Kbps
Width : 1 280 pixels
Height : 720 pixels
Display aspect ratio : 16:9
Frame rate mode : Constant
Frame rate : 23.976 fps
Color space : YUV
Chroma subsampling : 4:2:0
Bit depth : 8 bits
Scan type : Progressive
Bits/(Pixel*Frame) : 0.238
Stream size : 3.28 GiB (59%)
Title :
Writing library : core 107 r1745 4785e8e
Encoding settings : cabac=1 / ref=9 / deblock=1:-3:-3 / analyse=0x3:0x113 / me=tesa / subme=10 / psy=1 / psy_rd=0.90:0.00 / mixed_ref=1 / me_range=64 / chroma_me=1 / trellis=2 / 8x8dct=1 / cqm=0 / deadzone=21,11 / fast_pskip=0 / chroma_qp_offset=-2 / threads=6 / sliced_threads=0 / nr=0 / decimate=1 / interlaced=0 / constrained_intra=0 / bframes=6 / b_pyramid=1 / b_adapt=2 / b_bias=0 / direct=3 / weightb=1 / open_gop=0 / weightp=2 / keyint=250 / keyint_min=23 / scenecut=40 / intra_refresh=0 / rc_lookahead=40 / rc=2pass / mbtree=1 / bitrate=5257 / ratetol=1.0 / qcomp=0.60 / qpmin=10 / qpmax=51 / qpstep=4 / cplxblur=20.0 / qblur=0.5 / ip_ratio=1.40 / aq=1:0.80
Language : English
Default : No
Forced : No

Audio #1
ID : 2
Format : AC-3
Format/Info : Audio Coding 3
Mode extension : CM (complete main)
Format settings, Endianness : Big
Codec ID : A_AC3
Duration : 1h 32mn
Bit rate mode : Constant
Bit rate : 640 Kbps
Channel(s) : 6 channels
Channel positions : Front: L C R, Side: L R, LFE
Sampling rate : 48.0 KHz
Bit depth : 16 bits
Compression mode : Lossy
Stream size : 423 MiB (7%)
Title : 5.1 @ 640 kbps - Інтер
Language : Ukrainian
Default : Yes
Forced : No

Audio #2
ID : 3
Format : AC-3
Format/Info : Audio Coding 3
Mode extension : CM (complete main)
Format settings, Endianness : Big
Codec ID : A_AC3
Duration : 1h 32mn
Bit rate mode : Constant
Bit rate : 640 Kbps
Channel(s) : 6 channels
Channel positions : Front: L C R, Side: L R, LFE
Sampling rate : 48.0 KHz
Bit depth : 16 bits
Compression mode : Lossy
Stream size : 423 MiB (7%)
Title : 5.1 @ 640 kbps - 1+1
Language : Ukrainian
Default : No
Forced : No

Audio #3
ID : 4
Format : AC-3
Format/Info : Audio Coding 3
Mode extension : CM (complete main)
Format settings, Endianness : Big
Codec ID : A_AC3
Duration : 1h 32mn
Bit rate mode : Constant
Bit rate : 640 Kbps
Channel(s) : 6 channels
Channel positions : Front: L C R, Side: L R, LFE
Sampling rate : 48.0 KHz
Bit depth : 16 bits
Compression mode : Lossy
Stream size : 423 MiB (7%)
Title : 5.1 @ 640 kbps - Новий Канал
Language : Ukrainian
Default : No
Forced : No

Audio #4
ID : 5
Format :
Format/Info : Digital Theater Systems
Mode : 16
Format settings, Endianness : Big
Codec ID : A_DTS
Duration : 1h 32mn
Bit rate mode : Constant
Bit rate : 1 510 Kbps
Channel(s) : 6 channels
Channel positions : Front: L C R, Side: L R, LFE
Sampling rate : 48.0 KHz
Bit depth : 24 bits
Compression mode : Lossy
Stream size : 998 MiB (17%)
Title : 5.1 @ 1510 kbps
Language : English
Default : No
Forced : No

Text
ID : 6
Format : UTF-8
Codec ID : S_TEXT/UTF8
Codec ID/Info : UTF-8 Plain Text
Title : ENG
Language : English
Default : No
Forced : No
Шрек Третій / Shrek the Third (2007) 720p Ukr/Eng | Sub Ukr/Eng
Шрек Третій / Shrek the Third (2007) 720p Ukr/Eng | Sub Ukr/Eng




Кіностудія / кінокомпанія: DreamWorks
Режисер: Кріс Міллер
Сюжет:
Коли батько Фіони відійшов у інший світ, Шрек за ідеєю має зайняти його місце ?бо він усе ж таки чоловік спадкоємиці. Проте Шрек відмовляється звалювати на свої тендітні плечі непосильний тягар царювання, і тоді вони усі четверо ? Шрек, Фіона, Ослик та Кіт у чоботах ? вирішують піти на пошуки нового короля. Схоже, що король Артур ? саме той, хто їм потрібний...


Тривалість: 01:32:43
Якість:
Відео:
кодек:
розмір кадру: 1280x720
бітрейт: 4775 кб/с

Аудіо # 1:
мова: українська
переклад: професійний дубльований
кодек: 5.1
бітрейт: 640 кб/с (неперетиснутий, з блюрею)

Аудіо # 2:
мова: англійська
переклад: оригінал
кодек:
бітрейт: 1510 кб/с

Аудіо # 3:
мова: білоруська Завантажити окремим файлом
переклад: багатоголосий закадровий
кодек: 2.0
бітрейт: 192 кб/с

Переклад виконано і озвучено:


Субтитри # 1:
мова: українська
тип: пререндерні
формат: *.srt

Субтитри # 2:
мова: англійська
тип: пререндерні
формат: *.srt

Скріншоти:

Info
General
Unique ID : 179784655702254436972440877141561582814 (0x874143E3DFC2014C9AF2B27F0A8E24DE)
Complete name : /media/WD_2TB/Releases/Shrek Quadrlogy 720p/COMPLETE/Shrek Full Collection (2001-2011) [Ukr.Eng, Sub Ukr.Eng] 720p [Hurtom.com]/Shrek The Third (2007) [Ukr.Eng, Sub Ukr.Eng] 720p [Hurtom.com].
Format :
Format version : Version 2
File size : 4.49 GiB
Duration : 1h 32mn
Overall bit rate : 6 929 Kbps
Encoded date : UTC 2010-11-06 13:33:14
Writing application : mkvmerge v2.9.8 ('C'est le bon') built on Aug 24 2009 17:34:03
Writing library : libebml v0.7.7 + libmatroska v0.8.1
Attachment : Yes / Yes / Yes

Video
ID : 1
Format : AVC
Format/Info : Advanced Video Codec
Format profile : [email protected]
Format settings, CABAC : Yes
Format settings, ReFrames : 9 frames
Codec ID : V_MPEG4/ISO/AVC
Duration : 1h 32mn
Bit rate : 4 775 Kbps
Width : 1 280 pixels
Height : 720 pixels
Display aspect ratio : 16:9
Frame rate mode : Constant
Frame rate : 23.976 fps
Color space : YUV
Chroma subsampling : 4:2:0
Bit depth : 8 bits
Scan type : Progressive
Bits/(Pixel*Frame) : 0.216
Stream size : 3.01 GiB (67%)
Writing library : core 56 svn-680
Encoding settings : cabac=1 / ref=6 / deblock=1:-3:-3 / analyse=0x3:0x133 / me=umh / subme=7 / brdo=1 / mixed_ref=1 / me_range=16 / chroma_me=1 / trellis=0 / 8x8dct=1 / cqm=2 / deadzone=6,6 / chroma_qp_offset=0 / threads=6 / nr=0 / decimate=1 / mbaff=0 / bframes=3 / b_pyramid=1 / b_adapt=1 / b_bias=0 / direct=1 / wpredb=1 / bime=1 / keyint=250 / keyint_min=25 / scenecut=40(pre) / rc=2pass / bitrate=4775 / ratetol=1.0 / rceq='blurCplx^(1-qComp)' / qcomp=0.60 / qpmin=6 / qpmax=51 / qpstep=4 / cplxblur=20.0 / qblur=0.5 / ip_ratio=1.40 / pb_ratio=1.30 / aq=1:0.7:12.0
Language : English
Default : Yes
Forced : No

Audio #1
ID : 2
Format : AC-3
Format/Info : Audio Coding 3
Mode extension : CM (complete main)
Format settings, Endianness : Big
Codec ID : A_AC3
Duration : 1h 32mn
Bit rate mode : Constant
Bit rate : 640 Kbps
Channel(s) : 6 channels
Channel positions : Front: L C R, Side: L R, LFE
Sampling rate : 48.0 KHz
Bit depth : 16 bits
Compression mode : Lossy
Stream size : 425 MiB (9%)
Title : 5.1 @ 640 kbps - Дубльований
Language : Ukrainian
Default : Yes
Forced : No

Audio #2
ID : 3
Format :
Format/Info : Digital Theater Systems
Mode : 16
Format settings, Endianness : Big
Codec ID : A_DTS
Duration : 1h 32mn
Bit rate mode : Constant
Bit rate : 1 510 Kbps
Channel(s) : 6 channels
Channel positions : Front: L C R, Side: L R, LFE
Sampling rate : 48.0 KHz
Bit depth : 24 bits
Compression mode : Lossy
Stream size : 1 002 MiB (22%)
Title : 5.1 @ 1536 kbps
Language : English
Default : No
Forced : No

Text #1
ID : 4
Format : UTF-8
Codec ID : S_TEXT/UTF8
Codec ID/Info : UTF-8 Plain Text
Title : UKR
Language : Ukrainian
Default : No
Forced : No

Text #2
ID : 5
Format : UTF-8
Codec ID : S_TEXT/UTF8
Codec ID/Info : UTF-8 Plain Text
Title : ENG
Language : English
Default : No
Forced : No
Шрек: Різдво / Shrek: The Halls (2007) 720p Ukr/Eng
Шрек: Різдво / Shrek: The Halls (2007) 720p Ukr/Eng




Кіностудія / кінокомпанія: DreamWorks
Режисер: Гері Трауздейл
Сюжет:
На цей раз Шрек прагне влаштувати ідеальне Різдво для своєї родини, щоб приємно здивувати кохану Фіону і своїх чудових діточок. Та от незадача: Шрек ніколи раніше не святкував Різдва і не знає як це правильно робити. На допомогу йому приходить книжка "Різдво для сільських дурбеликів" і, звичайно, Осел, Кіт у чоботях і вся чесна компанія. А ось що з цього вийшло...


Тривалість: 00:21:15
Якість:
Відео:
кодек:
розмір кадру: 1280x720
бітрейт: 3900 кб/с

Аудіо # 1:
мова: українська
переклад: професійний дубльований
кодек: 2.0
бітрейт: 192 кб/с

Аудіо # 2:
мова: англійська
переклад: оригінал
кодек: 5.1
бітрейт: 640 кб/с

Звук записаний з каналу:


Скріншоти:

Info
General
Unique ID : 183766308270585357178851036520553879874 (0x8A401A84A9CF4FC09012C0814C279942)
Complete name : /media/WD_2TB/Releases/Shrek Quadrlogy 720p/COMPLETE/Shrek Full Collection (2001-2011) [Ukr.Eng, Sub Ukr.Eng] 720p [Hurtom.com]/Shrek The Halls (2007) [Ukr.Eng] 720p [Hurtom.com].
Format :
Format version : Version 2
File size : 720 MiB
Duration : 21mn 15s
Overall bit rate : 4 734 Kbps
Movie name : Shrek the Halls 720p
Encoded date : UTC 2011-01-03 17:18:32
Writing application : mkvmerge v2.9.8 ('C'est le bon') built on Aug 24 2009 17:34:03
Writing library : libebml v0.7.7 + libmatroska v0.8.1

Video
ID : 1
Format : AVC
Format/Info : Advanced Video Codec
Format profile : [email protected]
Format settings, CABAC : Yes
Format settings, ReFrames : 8 frames
Codec ID : V_MPEG4/ISO/AVC
Duration : 21mn 15s
Bit rate : 3 900 Kbps
Width : 1 280 pixels
Height : 720 pixels
Display aspect ratio : 16:9
Frame rate mode : Constant
Frame rate : 23.976 fps
Color space : YUV
Chroma subsampling : 4:2:0
Bit depth : 8 bits
Scan type : Progressive
Bits/(Pixel*Frame) : 0.177
Stream size : 579 MiB (80%)
Title : Shrek the Halls 720p 3900kbps
Writing library : core 56 svn-689
Encoding settings : cabac=1 / ref=5 / deblock=1:-1:-1 / analyse=0x3:0x133 / me=umh / subme=7 / brdo=1 / mixed_ref=1 / me_range=16 / chroma_me=1 / trellis=1 / 8x8dct=1 / cqm=2 / deadzone=21,11 / chroma_qp_offset=0 / threads=1 / nr=0 / decimate=1 / mbaff=0 / bframes=4 / b_pyramid=1 / b_adapt=1 / b_bias=0 / direct=3 / wpredb=1 / bime=1 / keyint=250 / keyint_min=25 / scenecut=40 / rc=2pass / bitrate=3900 / ratetol=1.0 / rceq='blurCplx^(1-qComp)' / qcomp=0.60 / qpmin=10 / qpmax=51 / qpstep=3 / cplxblur=20.0 / qblur=0.5 / ip_ratio=1.40 / pb_ratio=1.30
Language : English
Default : Yes
Forced : No

Audio #1
ID : 2
Format : AC-3
Format/Info : Audio Coding 3
Mode extension : CM (complete main)
Format settings, Endianness : Big
Codec ID : A_AC3
Duration : 21mn 15s
Bit rate mode : Constant
Bit rate : 192 Kbps
Channel(s) : 2 channels
Channel positions : Front: L R
Sampling rate : 48.0 KHz
Bit depth : 16 bits
Compression mode : Lossy
Stream size : 29.2 MiB (4%)
Title : 2.0 @ 192 kbps - Дубльований
Default : Yes
Forced : No

Audio #2
ID : 3
Format : AC-3
Format/Info : Audio Coding 3
Mode extension : CM (complete main)
Format settings, Endianness : Big
Codec ID : A_AC3
Duration : 21mn 15s
Bit rate mode : Constant
Bit rate : 640 Kbps
Channel(s) : 6 channels
Channel positions : Front: L C R, Side: L R, LFE
Sampling rate : 48.0 KHz
Bit depth : 16 bits
Compression mode : Lossy
Stream size : 97.3 MiB (14%)
Title : 5.1 640kbps
Language : English
Default : No
Forced : No
Шрек Назавжди / Shrek Forever After (2010) 720p Ukr/Eng | Sub Ukr/Eng
Шрек Назавжди / Shrek Forever After (2010) 720p Ukr/Eng | Sub Ukr/Eng




Кіностудія / кінокомпанія: DreamWorks
Режисер: Майк Мітчелл
Сюжет:
Після того, як зелений велетень врятував принцесу, одружувався і обзавівся тройняшкамі, Шрек став занадто домашнім. Щоб повернути своє людоїдське моджо, Шрек укладає договір з Румпельштильцхеном. Операція з хитрим карликом йде не так, як очікувалося, унаслідок чого Шреку доведеться взнати, яким було б життя в Далекому далекому королівстві, якби його ніколи не існувало.


Тривалість: 01:33:10
Якість:
Відео:
кодек:
розмір кадру: 1280x544
бітрейт: 3415 кб/с

Аудіо # 1:
мова: українська
переклад: професійний дубльований
кодек: 5.1
бітрейт: 640 кб/с

Аудіо # 2:
мова: англійська
переклад: оригінал
кодек: 5.1
бітрейт: 640 кб/с

Переклад виконано і озвучено:


Субтитри # 1:
мова: українська
тип: пререндерні
формат: *.srt

Субтитри # 2:
мова: англійська
тип: пререндерні
формат: *.srt

Скріншоти:

Info
General
Unique ID : 241599018028277643006533202414752483093 (0xB5C24740FF28AD5F90A151B099EBC715)
Complete name : /media/WD_2TB/Releases/Shrek Quadrlogy 720p/COMPLETE/Shrek Full Collection (2001-2011) [Ukr.Eng, Sub Ukr.Eng] 720p [Hurtom.com]/Shrek Forever After (2010) [Ukr.Eng, Sub Ukr.Eng] 720p [Hurtom.com].
Format :
Format version : Version 2
File size : 3.06 GiB
Duration : 1h 33mn
Overall bit rate : 4 698 Kbps
Encoded date : UTC 2011-01-03 17:11:51
Writing application : mkvmerge v2.9.8 ('C'est le bon') built on Aug 24 2009 17:34:03
Writing library : libebml v0.7.7 + libmatroska v0.8.1

Video
ID : 1
Format : AVC
Format/Info : Advanced Video Codec
Format profile : [email protected]
Format settings, CABAC : Yes
Format settings, ReFrames : 5 frames
Codec ID : V_MPEG4/ISO/AVC
Duration : 1h 33mn
Bit rate : 3 415 Kbps
Width : 1 280 pixels
Height : 544 pixels
Display aspect ratio : 2.35:1
Frame rate mode : Constant
Frame rate : 23.976 fps
Color space : YUV
Chroma subsampling : 4:2:0
Bit depth : 8 bits
Scan type : Progressive
Bits/(Pixel*Frame) : 0.205
Stream size : 2.16 GiB (71%)
Writing library : core 107 r1772 c9dad9e
Encoding settings : cabac=1 / ref=5 / deblock=1:0:0 / analyse=0x3:0x113 / me=umh / subme=7 / psy=1 / psy_rd=1.00:0.15 / mixed_ref=1 / me_range=16 / chroma_me=1 / trellis=1 / 8x8dct=1 / cqm=0 / deadzone=21,11 / fast_pskip=0 / chroma_qp_offset=-3 / threads=12 / sliced_threads=0 / nr=0 / decimate=1 / interlaced=0 / constrained_intra=0 / bframes=3 / b_pyramid=2 / b_adapt=1 / b_bias=0 / direct=1 / weightb=1 / open_gop=0 / weightp=2 / keyint=250 / keyint_min=23 / scenecut=40 / intra_refresh=0 / rc_lookahead=40 / rc=2pass / mbtree=1 / bitrate=3415 / ratetol=1.0 / qcomp=0.60 / qpmin=10 / qpmax=51 / qpstep=4 / cplxblur=20.0 / qblur=0.5 / ip_ratio=1.40 / aq=1:1.00
Language : English
Default : No
Forced : No

Audio #1
ID : 2
Format : AC-3
Format/Info : Audio Coding 3
Mode extension : CM (complete main)
Format settings, Endianness : Big
Codec ID : A_AC3
Duration : 1h 33mn
Bit rate mode : Constant
Bit rate : 640 Kbps
Channel(s) : 6 channels
Channel positions : Front: L C R, Side: L R, LFE
Sampling rate : 48.0 KHz
Bit depth : 16 bits
Compression mode : Lossy
Stream size : 427 MiB (14%)
Title : Дубляж @ DD 5.1 @ 640 kbps
Language : Ukrainian
Default : Yes
Forced : No

Audio #2
ID : 3
Format : AC-3
Format/Info : Audio Coding 3
Mode extension : CM (complete main)
Format settings, Endianness : Big
Codec ID : A_AC3
Duration : 1h 33mn
Bit rate mode : Constant
Bit rate : 640 Kbps
Channel(s) : 6 channels
Channel positions : Front: L C R, Side: L R, LFE
Sampling rate : 48.0 KHz
Bit depth : 16 bits
Compression mode : Lossy
Stream size : 427 MiB (14%)
Title : English @ DD 5.1 @ 640 kbps
Language : English
Default : No
Forced : No

Text #1
ID : 4
Format : UTF-8
Codec ID : S_TEXT/UTF8
Codec ID/Info : UTF-8 Plain Text
Title : Ukrainian
Language : Ukrainian
Default : No
Forced : No

Text #2
ID : 5
Format : UTF-8
Codec ID : S_TEXT/UTF8
Codec ID/Info : UTF-8 Plain Text
Title : English
Language : English
Default : No
Forced : No
Налякані до шрекавки / Обшрекатися від переляку / Scared Shrekless (2010) 2хUkr/Eng | Sub Eng
Налякані до шрекавки / Обшрекатися від переляку / Scared Shrekless (2010) 2хUkr/Eng | Sub Eng




Кіностудія / кінокомпанія: DreamWorks
Режисер: Джері Троусдейл /Gary Trousdale/, Реман Х'юі /Raman Hui/.
Сюжет:
Спеціальний показ Шрека, присвячений до Геловіну. Геловін – його улюблене свято, й у цьому році він планує ніч лякань у притаманному до людоїдів стилю. Шрек підбиває Фіону, Віслюка, Кота у чоботях та інших казкових персонажів провести ніч у колишньому замку лорда Фаркуадом й порозповідати страшилки. Останній, хто обшрекається від переляку, переможе.


Тривалість: 00:21:03
Якість:
Відео:
кодек:
розмір кадру: 1280x720
бітрейт: 3700 кб/с

Аудіо # 1:
мова: українська
переклад: професійний дубльований
кодек: 2.0
бітрейт: 192 кб/с
Звук записаний з каналу:


Аудіо # 2:
мова: українська
переклад: багатоголосий закадровий
кодек: 5.1
бітрейт: 384 кб/с
Переклад виконано і озвучено:
спільно з

Аудіо # 3:
мова: англійська
переклад: оригінал
кодек: 5.1
бітрейт: 384 кб/с

Субтитри:
мова: англійська
тип: пререндерні
формат: *.srt

Скріншоти:

Info
General
Unique ID : 170524390587794036954288278370097243464 (0x8049CD91F10B37EC9063859A613B2548)
Complete name : /media/WD_2TB/Releases/Shrek Quadrlogy 720p/COMPLETE/Shrek Full Collection (2001-2011) [Ukr.Eng, Sub Ukr.Eng] 720p [Hurtom.com]/Scared Shrekless (2010) [2xUkr.Eng, Sub Eng] 720p [VSTeam & Filiza Studio & Hurtom.com].
Format :
Format version : Version 2
File size : 645 MiB
Duration : 21mn 3s
Overall bit rate : 4 284 Kbps
Movie name : Shrek the Halls 720p
Encoded date : UTC 2011-01-03 17:27:17
Writing application : mkvmerge v2.9.8 ('C'est le bon') built on Aug 24 2009 17:34:03
Writing library : libebml v0.7.7 + libmatroska v0.8.1

Video
ID : 1
Format : AVC
Format/Info : Advanced Video Codec
Format profile : [email protected]
Format settings, CABAC : Yes
Format settings, ReFrames : 5 frames
Codec ID : V_MPEG4/ISO/AVC
Duration : 21mn 3s
Bit rate : 3 323 Kbps
Width : 1 280 pixels
Height : 720 pixels
Display aspect ratio : 16:9
Frame rate mode : Constant
Frame rate : 23.976 fps
Color space : YUV
Chroma subsampling : 4:2:0
Bit depth : 8 bits
Scan type : Progressive
Bits/(Pixel*Frame) : 0.150
Stream size : 488 MiB (76%)
Writing library : core 102 r1666 d058f37
Encoding settings : cabac=1 / ref=5 / deblock=1:-1:-1 / analyse=0x3:0x113 / me=umh / subme=8 / psy=1 / psy_rd=1.00:0.00 / mixed_ref=1 / me_range=16 / chroma_me=1 / trellis=1 / 8x8dct=1 / cqm=0 / deadzone=21,11 / fast_pskip=0 / chroma_qp_offset=-2 / threads=16 / sliced_threads=0 / nr=0 / decimate=1 / interlaced=0 / constrained_intra=0 / bframes=3 / b_pyramid=2 / b_adapt=1 / b_bias=0 / direct=3 / weightb=1 / open_gop=0 / weightp=2 / keyint=250 / keyint_min=25 / scenecut=40 / intra_refresh=0 / rc_lookahead=40 / rc=2pass / mbtree=1 / bitrate=3323 / ratetol=1.0 / qcomp=0.60 / qpmin=10 / qpmax=51 / qpstep=4 / cplxblur=20.0 / qblur=0.5 / ip_ratio=1.40 / aq=1:1.10
Default : Yes
Forced : No

Audio #1
ID : 2
Format : AC-3
Format/Info : Audio Coding 3
Mode extension : CM (complete main)
Format settings, Endianness : Big
Codec ID : A_AC3
Duration : 21mn 3s
Bit rate mode : Constant
Bit rate : 192 Kbps
Channel(s) : 2 channels
Channel positions : Front: L R
Sampling rate : 48.0 KHz
Bit depth : 16 bits
Compression mode : Lossy
Stream size : 28.9 MiB (4%)
Title : Новий Канал
Language : Ukrainian
Default : Yes
Forced : No

Audio #2
ID : 3
Format : AC-3
Format/Info : Audio Coding 3
Mode extension : CM (complete main)
Format settings, Endianness : Big
Codec ID : A_AC3
Duration : 21mn 3s
Bit rate mode : Constant
Bit rate : 384 Kbps
Channel(s) : 6 channels
Channel positions : Front: L C R, Side: L R, LFE
Sampling rate : 48.0 KHz
Bit depth : 16 bits
Compression mode : Lossy
Stream size : 57.9 MiB (9%)
Title : VSTeam & FiliZa Studio
Language : Ukrainian
Default : No
Forced : No

Audio #3
ID : 4
Format : AC-3
Format/Info : Audio Coding 3
Mode extension : CM (complete main)
Format settings, Endianness : Big
Codec ID : A_AC3
Duration : 21mn 3s
Bit rate mode : Constant
Bit rate : 384 Kbps
Channel(s) : 6 channels
Channel positions : Front: L C R, Side: L R, LFE
Sampling rate : 48.0 KHz
Bit depth : 16 bits
Compression mode : Lossy
Stream size : 57.9 MiB (9%)
Language : English
Default : No
Forced : No

Text
ID : 5
Format : UTF-8
Codec ID : S_TEXT/UTF8
Codec ID/Info : UTF-8 Plain Text
Title : ENG
Language : English
Default : No
Forced : No
Кіт у чоботях / Puss in Boots (2011) 720p Ukr/Eng | Sub Ukr/Eng
Кіт у чоботях / Puss in Boots (2011) 720p Ukr/Eng | Sub Ukr/Eng




Кіностудія / кінокомпанія: DreamWorks
Режисер: Кріс Міллер (Chris Miller)
Сюжет:
Як і в кожного легендарного героя, у Кота було важке дитинство – ще немовлям він потрапив у дитячий притулок маленького іспанського (чи мексиканського?) містечка. Там Кіт зустрів яйце на ім'я Хитун Александр Бовтун, який ще у дитинстві склав хитрий план викрадення гуски, що несе золоті яйця. Допомогти у його здійсненні мали чарівні боби.

Друзі організували Бобовий клуб (головне правило якого – "нікому не розповідати про Бобовий клуб") і стали шукати способи наблизитися до своєї мрії. Згодом Кіт розпочав свій шлях народного героя та рятівника бабусь, а Бовтун, засліплений жадобою багатства, потрапив у в'язницю. Через сім років і вони знову возз'єдналися, аби згадати старі часи та вкрасти омріяну гуску. Допомагає їм у цьому красуня Кицька М'яколапка.

Пухнастий герой картини, мов справжній мачо-супермен, танцює, б'ється на шпагах, зваблює гарненьких киць, зачаровує своєю тваринною харизмою та від'їздить у захід сонця на баскому скакуні.


Тривалість: 01:30:14
Якість:
Відео:
кодек:
розмір кадру: 1280x544
бітрейт: 4113 кб/с

Аудіо # 1:
мова: українська
переклад: професійний дубльований
кодек: 5.1
бітрейт: 640 кб/с

Аудіо # 2:
мова: англійська
переклад: оригінал
кодек: 5.1
бітрейт: 640 кб/с

Переклад виконано і озвучено:


Субтитри # 1:
мова: українська
тип: програмні (м'які)
формат: *.srt

Субтитри # 2:
мова: англійська
тип: програмні (м'які)
формат: *.srt

Скріншоти:

Info
General
Unique ID : 225119453138088111921803494233121508570 (0xA95C6DF95DAE5529A4C6EB9DDE6C4CDA)
Complete name : /media/WD_2TB/Releases/Shrek Quadrlogy 720p/COMPLETE/Shrek Full Collection (2001-2011) [Ukr.Eng, Sub Ukr.Eng] 720p [Hurtom.com]/Puss in Boots (2011) [Ukr.Eng, Sub Ukr.Eng] 720p [Hurtom.com].
Format :
Format version : Version 2
File size : 3.47 GiB
Duration : 1h 30mn
Overall bit rate : 5 501 Kbps
Movie name : Puss in Boots: The Three Diablos (2011) - EbP
Encoded date : UTC 2012-07-08 09:36:58
Writing application : mkvmerge v2.9.8 ('C'est le bon') built on Aug 24 2009 17:34:03
Writing library : libebml v0.7.7 + libmatroska v0.8.1

Video
ID : 1
Format : AVC
Format/Info : Advanced Video Codec
Format profile : [email protected]
Format settings, CABAC : Yes
Format settings, ReFrames : 12 frames
Codec ID : V_MPEG4/ISO/AVC
Duration : 1h 30mn
Bit rate : 4 112 Kbps
Width : 1 280 pixels
Height : 544 pixels
Display aspect ratio : 2.35:1
Frame rate mode : Constant
Frame rate : 23.976 fps
Color space : YUV
Chroma subsampling : 4:2:0
Bit depth : 8 bits
Scan type : Progressive
Bits/(Pixel*Frame) : 0.246
Stream size : 2.59 GiB (75%)
Writing library : core 120 r2164 da19765
Encoding settings : cabac=1 / ref=12 / deblock=1:-3:-3 / analyse=0x3:0x113 / me=tesa / subme=11 / psy=1 / psy_rd=0.80:0.00 / mixed_ref=1 / me_range=24 / chroma_me=1 / trellis=2 / 8x8dct=1 / cqm=0 / deadzone=21,11 / fast_pskip=0 / chroma_qp_offset=-2 / threads=6 / sliced_threads=0 / nr=0 / decimate=0 / interlaced=0 / bluray_compat=0 / constrained_intra=0 / bframes=7 / b_pyramid=2 / b_adapt=2 / b_bias=0 / direct=3 / weightb=1 / open_gop=0 / weightp=2 / keyint=250 / keyint_min=23 / scenecut=40 / intra_refresh=0 / rc_lookahead=60 / rc=crf / mbtree=0 / crf=15.5 / qcomp=0.60 / qpmin=0 / qpmax=69 / qpstep=4 / vbv_maxrate=38000 / vbv_bufsize=30000 / crf_max=0.0 / nal_hrd=none / ip_ratio=1.40 / pb_ratio=1.30 / aq=1:0.90
Language : English
Default : Yes
Forced : No
Color primaries : BT.709
Transfer characteristics : BT.709
Matrix coefficients : BT.709

Audio #1
ID : 2
Format : AC-3
Format/Info : Audio Coding 3
Mode extension : CM (complete main)
Format settings, Endianness : Big
Codec ID : A_AC3
Duration : 1h 30mn
Bit rate mode : Constant
Bit rate : 640 Kbps
Channel(s) : 6 channels
Channel positions : Front: L C R, Side: L R, LFE
Sampling rate : 48.0 KHz
Bit depth : 16 bits
Compression mode : Lossy
Stream size : 413 MiB (12%)
Language : Ukrainian
Default : Yes
Forced : No

Audio #2
ID : 3
Format : AC-3
Format/Info : Audio Coding 3
Mode extension : CM (complete main)
Format settings, Endianness : Big
Codec ID : A_AC3
Duration : 1h 30mn
Bit rate mode : Constant
Bit rate : 640 Kbps
Channel(s) : 6 channels
Channel positions : Front: L C R, Side: L R, LFE
Sampling rate : 48.0 KHz
Bit depth : 16 bits
Compression mode : Lossy
Stream size : 413 MiB (12%)
Language : English
Default : No
Forced : No

Text #1
ID : 4
Format : UTF-8
Codec ID : S_TEXT/UTF8
Codec ID/Info : UTF-8 Plain Text
Language : Ukrainian
Default : No
Forced : No

Text #2
ID : 5
Format : UTF-8
Codec ID : S_TEXT/UTF8
Codec ID/Info : UTF-8 Plain Text
Language : English
Default : No
Forced : No

Menu
00:00:00.000 : en:Chapter 01
00:03:25.247 : en:Chapter 02
00:07:20.148 : en:Chapter 03
00:11:46.831 : en:Chapter 04
00:15:53.369 : en:Chapter 05
00:19:23.537 : en:Chapter 06
00:25:58.348 : en:Chapter 07
00:29:22.427 : en:Chapter 08
00:34:06.461 : en:Chapter 09
00:39:17.438 : en:Chapter 10
00:44:12.108 : en:Chapter 11
00:49:34.054 : en:Chapter 12
00:54:05.951 : en:Chapter 13
00:57:38.205 : en:Chapter 14
01:03:05.991 : en:Chapter 15
01:08:14.716 : en:Chapter 16
01:16:51.774 : en:Chapter 17
01:19:42.194 : en:Chapter 18
Кіт у чоботях: Троє чортенят / Puss in Boots: The Three Diablos (2011) 720p 2xUkr/Eng | Sub 2xUkr/Eng
Кіт у чоботях: Троє чортенят / Puss in Boots: The Three Diablos (2011) 720p 2xUkr/Eng | Sub 2xUkr/Eng




Кіностудія / кінокомпанія: DreamWorks
Режисер: Ґері Троусдейл /Gary Trousdale/, Реман Х'юі /Raman Hui/.
Сюжет:
Кіт у чоботях вирушає на пошук рубіна, вкраденого з корони принцеси горезвісним французьким злодієм Шепотом. Його супроводжують троє маленьких кошенят, три чортенятка. Кіт повинен приручити їх, перш ніж поставити під загрозу місію.


Тривалість: 00:13:05
Якість:
Відео:
кодек:
розмір кадру: 1280x720
бітрейт: 5000 кб/с

Аудіо # 1:
мова: українська
переклад: багатоголосий закадровий
кодек: 5.1
бітрейт: 448 кб/с
Переклад виконано і озвучено:
(--Rom--,TRO[9]N, Маринка Халвичка,SINIGAMI,-GHOST-)

Аудіо # 2:
мова: українська
переклад: одноголосий закадровий
кодек: 5.1
бітрейт: 448 кб/с
Переклад виконано і озвучено:
UAMax (Ray)

Аудіо # 3:
мова: англійська
переклад: оригінал
кодек: 5.1
бітрейт: 448 кб/с кб/с

Субтитри # 1:
мова: українська від Gelios
тип: програмні (м'які)
формат: *.srt

Субтитри # 2:
мова: українська від Dark Invader
тип: програмні (м'які)
формат: *.srt

Субтитри # 3:
мова: англійська
тип: програмні (м'які)
формат: *.srt

Скріншоти:

Info
General
Unique ID : 227504437836464052341073257329710931734 (0xAB27C2CC60228A7FB45889FF1B511F16)
Complete name : /media/WD_2TB/Releases/Shrek Quadrlogy 720p/COMPLETE/Shrek Full Collection (2001-2011) [Ukr.Eng, Sub Ukr.Eng] 720p [Hurtom.com]/Puss in Boots. The Three Diablos (2011) [2xUkr.Eng, Sub 2xUkr.Eng] 720p [Hurtom.com].
Format :
Format version : Version 2
File size : 626 MiB
Duration : 13mn 5s
Overall bit rate : 6 683 Kbps
Movie name : Puss in Boots: The Three Diablos (2011) - EbP
Encoded date : UTC 2012-07-08 09:30:44
Writing application : mkvmerge v2.9.8 ('C'est le bon') built on Aug 24 2009 17:34:03
Writing library : libebml v0.7.7 + libmatroska v0.8.1

Video
ID : 1
Format : AVC
Format/Info : Advanced Video Codec
Format profile : [email protected]
Format settings, CABAC : Yes
Format settings, ReFrames : 9 frames
Codec ID : V_MPEG4/ISO/AVC
Duration : 13mn 5s
Bit rate : 5 014 Kbps
Width : 1 280 pixels
Height : 720 pixels
Display aspect ratio : 16:9
Frame rate mode : Constant
Frame rate : 23.976 fps
Color space : YUV
Chroma subsampling : 4:2:0
Bit depth : 8 bits
Scan type : Progressive
Bits/(Pixel*Frame) : 0.227
Stream size : 469 MiB (75%)
Writing library : core 120 r2164 da19765
Encoding settings : cabac=1 / ref=9 / deblock=1:-3:-3 / analyse=0x3:0x113 / me=tesa / subme=11 / psy=1 / psy_rd=0.80:0.00 / mixed_ref=1 / me_range=24 / chroma_me=1 / trellis=2 / 8x8dct=1 / cqm=0 / deadzone=21,11 / fast_pskip=0 / chroma_qp_offset=-2 / threads=6 / sliced_threads=0 / nr=0 / decimate=0 / interlaced=0 / bluray_compat=0 / constrained_intra=0 / bframes=7 / b_pyramid=2 / b_adapt=2 / b_bias=0 / direct=3 / weightb=1 / open_gop=0 / weightp=2 / keyint=250 / keyint_min=23 / scenecut=40 / intra_refresh=0 / rc_lookahead=60 / rc=crf / mbtree=0 / crf=16.0 / qcomp=0.60 / qpmin=0 / qpmax=69 / qpstep=4 / vbv_maxrate=38000 / vbv_bufsize=30000 / crf_max=0.0 / nal_hrd=none / ip_ratio=1.40 / pb_ratio=1.30 / aq=1:0.90
Language : English
Default : No
Forced : No
Color primaries : BT.709
Transfer characteristics : BT.709
Matrix coefficients : BT.709

Audio #1
ID : 2
Format : AC-3
Format/Info : Audio Coding 3
Mode extension : CM (complete main)
Format settings, Endianness : Big
Codec ID : A_AC3
Duration : 13mn 5s
Bit rate mode : Constant
Bit rate : 448 Kbps
Channel(s) : 6 channels
Channel positions : Front: L C R, Side: L R, LFE
Sampling rate : 48.0 KHz
Bit depth : 16 bits
Compression mode : Lossy
Stream size : 42.0 MiB (7%)
Title : UkrDub.net
Language : Ukrainian
Default : Yes
Forced : No

Audio #2
ID : 3
Format : AC-3
Format/Info : Audio Coding 3
Mode extension : CM (complete main)
Format settings, Endianness : Big
Codec ID : A_AC3
Duration : 13mn 5s
Bit rate mode : Constant
Bit rate : 448 Kbps
Channel(s) : 6 channels
Channel positions : Front: L C R, Side: L R, LFE
Sampling rate : 48.0 KHz
Bit depth : 16 bits
Compression mode : Lossy
Stream size : 42.0 MiB (7%)
Title : UAMax
Language : Ukrainian
Default : No
Forced : No

Audio #3
ID : 4
Format : AC-3
Format/Info : Audio Coding 3
Mode extension : CM (complete main)
Format settings, Endianness : Big
Codec ID : A_AC3
Duration : 13mn 5s
Bit rate mode : Constant
Bit rate : 640 Kbps
Channel(s) : 6 channels
Channel positions : Front: L C R, Side: L R, LFE
Sampling rate : 48.0 KHz
Bit depth : 16 bits
Compression mode : Lossy
Stream size : 59.9 MiB (10%)
Language : English
Default : No
Forced : No

Text #1
ID : 5
Format : UTF-8
Codec ID : S_TEXT/UTF8
Codec ID/Info : UTF-8 Plain Text
Title : PavloPro
Language : Ukrainian
Default : No
Forced : No

Text #2
ID : 6
Format : UTF-8
Codec ID : S_TEXT/UTF8
Codec ID/Info : UTF-8 Plain Text
Title : Dark Invader
Language : Ukrainian
Default : No
Forced : No

Text #3
ID : 7
Format : UTF-8
Codec ID : S_TEXT/UTF8
Codec ID/Info : UTF-8 Plain Text
Language : English
Default : No
Forced : No
колекція
на ex.ua | 720p на ex.ua | Звук та саби на ex.ua
Подяка за наданий запис звуку з Нового Каналу в гарній якості до першої, другої частин та різдвяного випуску xslim.
Подяка за надання доріжок з Інтер до перших двох Шреків xslim. Білоруські доріжки знайдені в сирому вигляді на просторах інтернета.
Подяка за озвучення "Шрек 3D" команді VSTeam. Сирий звук на Шрек (дубляж) та Шрек 2 (від 1+1) взятий звідси
Короткометражний мультфільм "Кіт у чоботях: Троє чортенят" взято звідси. Подяка UkrDub.net та UAMax за озвучення мульту.
Подяка за переклад та озвучення "Scared Shrekless (2010)" VSTeam та FiliZa Studio
Відеоріпи та зведення abodnya
Велика подяка пану THEFIR за Українізацію постерів


Джерело:
Особиста оцінка: 10 - без зайвих вагань рекомендую всім!


Срібний реліз (на рейтинг впливає 50% завантаженого)
 Трекер:    Зареєстрований   

Завантажити / скачати мультфільм українською



відео для новачків



 Зареєстрований:   2012-07-09 02:25
 Розмір:   24.46 GB 
 Оцінка мультфільму:   9.8/10 (Голосів: 78)
   
Хлопчик 
Свій


З нами з: 01.10.10
Востаннє: 15.08.17
Повідомлень: 149

2010-11-20 00:01  
вимагаю золото!!!!!!!
fl_fl 
Відео Гуртом - фільмокрай
Відео Гуртом - фільмокрай


З нами з: 26.05.09
Востаннє: 22.08.17
Повідомлень: 3089

2010-11-20 00:35  
Шрек 3Д розтягнутий. ППЦ!
abodnya 
Відео Гуртом - фільмокрай
Відео Гуртом - фільмокрай


З нами з: 02.11.08
Востаннє: 21.08.17
Повідомлень: 5959

2010-11-20 00:55  
Бо там співвідношення нестандартне
При 1280х544 виходить сплюснуте дуже.
тут менш розтягнуте, аніж виходило б сплюснуте.
Вибрав менш страшне

Додано через 16 хвилин 34 секунди:

Реліз версії AVI буде завтра

B1ood 
Новенький


З нами з: 20.11.10
Востаннє: 30.12.10
Повідомлень: 3

2010-11-20 07:26  
Чому файл SHRAK HALLS названий якщо це (навіть на скрінах помітно) ?! Виправте, будьласка, бо інакше цю тему можна вважати фейком!
abodnya 
Відео Гуртом - фільмокрай
Відео Гуртом - фільмокрай


З нами з: 02.11.08
Востаннє: 21.08.17
Повідомлень: 5959

2010-11-20 12:01  
Фейком? Чуваче, ти трекером помилився. Не ображай мою роботу.
То що ж мені торрент-файл перезаливати?
ок, зараз перезаллю, якщо це така проблема

Додано через 19 хвилин 55 секунд:

Торрент-файл оновленно. Перейменовані 3 файли

Shrek 2 (2004) [2xUkr.Eng, Sub Eng] 720p [Hurtom.com].
Shrek (2001) [2xUkr.Eng, Sub Eng] 720p [Hurtom.com].
Shrek The Halls (2007) [Ukr.Eng] 720p [Hurtom.com].

Додано через 1 годину 51 хвилину 25 секунд:


xfsolya 
Частий відвідувач


З нами з: 30.12.08
Востаннє: 20.04.15
Повідомлень: 31

2010-11-21 20:42  
дякую! чудовий реліз!
Хлопчик 
Свій


З нами з: 01.10.10
Востаннє: 15.08.17
Повідомлень: 149

2010-11-21 22:31  
abodnya роздавай
abodnya 
Відео Гуртом - фільмокрай
Відео Гуртом - фільмокрай


З нами з: 02.11.08
Востаннє: 21.08.17
Повідомлень: 5959

2010-11-21 23:48  
От щойно перевстановив вінду. Сьогодні вже все налаштую і сьогодні-завтра почну роздачу
BMK12 
Відео Гуртом - підтримка та поширення
Відео Гуртом - підтримка та поширення


З нами з: 13.04.09
Востаннє: 23.08.17
Повідомлень: 3110

2010-11-22 16:36  
Дуже вдячний. Вантажу та підтримаю.
Хлопчик 
Свій


З нами з: 01.10.10
Востаннє: 15.08.17
Повідомлень: 149

2010-11-22 21:21  
я напевно роздам бiльше 200 гб
Ma3au 
VIP


З нами з: 19.03.09
Востаннє: 22.08.17
Повідомлень: 264

2010-11-30 20:28  
Шрек ..шрек шрек))
imonko 
Відео Гуртом - фільмокрай
Відео Гуртом - фільмокрай


З нами з: 20.07.08
Востаннє: 11.04.17
Повідомлень: 7308

2010-11-30 22:26  
Ma3au написано:
Шрек ..шрек шрек))

досить писати безглузді повідомлення

МаксимЦ 
Новенький


З нами з: 03.04.09
Востаннє: 31.01.17
Повідомлень: 5

2010-12-28 14:57  
немає шрек медовий місяць
B1ood 
Новенький


З нами з: 20.11.10
Востаннє: 30.12.10
Повідомлень: 3

2010-12-30 05:19  
МаксимЦ А Шрек 3д це вам що?
Доречi, можливо комусь буде корисна iнфа: співвідношення сторiн 2.21:1 для цього вiдео найкраще пiдходить, щоб не було розтягнуто чи сплюснуто!

abodnya 
Відео Гуртом - фільмокрай
Відео Гуртом - фільмокрай


З нами з: 02.11.08
Востаннє: 21.08.17
Повідомлень: 5959

2010-12-30 14:49  
цей дефект буде виправлено при оновленнs
abodnya 
Відео Гуртом - фільмокрай
Відео Гуртом - фільмокрай


З нами з: 02.11.08
Востаннє: 21.08.17
Повідомлень: 5959

2011-01-04 01:10  
Торрент-файл оновленно!

Шрек 3D / Shrek 3D (2003) Ukr/Eng - кращий ріп
Шрек: Різдво / Shrek: The Halls (2007) Ukr/Eng - звук замінений на ас3 192
Шрек Назавжди / Shrek Forever After (2010) Ukr/Eng | Sub Ukr/Eng - звук з dvd замінений на звук з блюрея
Налякані до шрекавки / Обшрекатися від переляку / Scared Shrekless (2010) 2хUkr/Eng | Sub Eng - доданий дубляж від Нового каналу

DiGen 
Модератор HD та координатор Команди HD
Модератор HD та координатор Команди HD


З нами з: 12.11.09
Востаннє: 24.06.13
Повідомлень: 1451

2011-01-11 01:33  
Поставив перевірено.
Замовив Українізацію деяких постерів - будуть готові, то сам заміню.
Один замінив.
Збірка гарна, але чи то скріни до 2-х погані, чи то якість відео не дуже, хоча фільтрами плеєра можна витягнути.
Релізеру подяка

Tenax555 
Свій


З нами з: 26.08.09
Востаннє: 14.07.17
Повідомлень: 95

2011-01-16 03:53  
1080p з норм. бітрейтом буде?
Дякую.

muestro 
Відео Гуртом - фільмокрай
Відео Гуртом - фільмокрай


З нами з: 28.10.09
Востаннє: 22.08.17
Повідомлень: 864

2011-01-25 02:40  
Цитата:
http://www.yakaboo.ua/ru/catalog/all/shrek-forever-after-donkeys-christmas-shrektacular-2-dvd-192012


проясніть ті додаткові матеріали мені - це типу короткометражки до Шрека???

abodnya 
Відео Гуртом - фільмокрай
Відео Гуртом - фільмокрай


З нами з: 02.11.08
Востаннє: 21.08.17
Повідомлень: 5959

2011-01-25 16:56  
зараз викачую той диск з рутрекера, якщо щось дійсно цікаве на тих дисках, то додам у роздачу

Додано через 29 секунд:

Тільки треба буде ще перекласти ті мульти)

Додано через 2 години 6 хвилин 59 секунд:

На тому тиску 1 мульт - це взагалі повна дурня. Півгодини показують багаття і майже нічого не відбувається. Другий мульт - це прикольна п"ятихвилинна (ще 2 хвилин титри) музична серія, де головні герої влаштували банкет та співають піснеьки. Також на диску багацько різної різдвяної байди і т.п. Перекладати таке важко та і немає потреби як на мене.

Гелиос 
Новенький


З нами з: 22.01.11
Востаннє: 21.02.17
Повідомлень: 3

2011-02-20 14:21  
Збірка трохи не однорідна по якості звуку та картинки в ціломму +4
abodnya 
Відео Гуртом - фільмокрай
Відео Гуртом - фільмокрай


З нами з: 02.11.08
Востаннє: 21.08.17
Повідомлень: 5959

2011-02-20 14:48  
Чого ж неоднорідна? Усюди знормалізовано.
Картинка усюди720р

Rami 
Частий відвідувач


З нами з: 16.06.10
Востаннє: 22.08.17
Повідомлень: 29

2011-02-22 20:26  
abodnya, дякую за реліз, чудова робота!
Gvyntyk 
Свій


З нами з: 15.02.09
Востаннє: 20.08.17
Повідомлень: 111

2011-04-28 21:31  


Таку штуку ніхто не бачив у перекладі?

abodnya 
Відео Гуртом - фільмокрай
Відео Гуртом - фільмокрай


З нами з: 02.11.08
Востаннє: 21.08.17
Повідомлень: 5959

2011-04-28 21:33  
Gvyntyk написано:
Таку штуку ніхто не бачив у перекладі?

То набір пісеньок, завантажуваав собі подивитись що воно таке. Таке тільки в оригіналі треба дивитися

Oday 
Новенький


З нами з: 24.10.11
Востаннє: 08.08.17
Повідомлень: 7

2011-10-24 20:07  
abodnya опишіть будь-ласка послідовність роботи над звуковою доріжкою, mp3->,
з заміною центрального каналу все зрозуміло, але 640 кб/с - це з одніеї сторони круто, але з іншої настерігає, ви не ображайтеся,
просто зараз богато релізерів, яким на першому місці цифри 640 кб/с(маю на увазі дуття), а якість то вже таке...

P.S буду дуже вдячний за відповідь))

abodnya 
Відео Гуртом - фільмокрай
Відео Гуртом - фільмокрай


З нами з: 02.11.08
Востаннє: 21.08.17
Повідомлень: 5959

2012-07-09 02:23  
Увага! Торрент-файл оновлено!
До Шрек та Шрек 2 доданий переклад від Інтер.
До Шрек, Шрек 2 та Шрек 3 додана білоруська доріжка окремим файлом на екс.юа
Доданий новий повнометражний мультфільм Кіт у чоботях та короткометражний Кіт у чоботях: Троє чортенят

Приємного перегляду!

abodnya 
Відео Гуртом - фільмокрай
Відео Гуртом - фільмокрай


З нами з: 02.11.08
Востаннє: 21.08.17
Повідомлень: 5959

2012-07-09 10:47  
Oday написано:

abodnya опишіть будь-ласка послідовність роботи над звуковою доріжкою, mp3->,
з заміною центрального каналу все зрозуміло, але 640 кб/с - це з одніеї сторони круто, але з іншої настерігає, ви не ображайтеся,
просто зараз богато релізерів, яким на першому місці цифри 640 кб/с(маю на увазі дуття), а якість то вже таке...

Доріжку мр3 дубляжу від ictv та закадрівки від 1+1 було зведено до 720р відео та збережено як wav 768 kbps mono. Англійська доріжка була взята 5.1 1510, розкладена на високоякісні wav канали. Щоб не втрачати якість 5 з 6 каналів було зроблено ас3 5.1 640 кбпс. В доріжці з дубляжем дещо почищено бокові канали щоб не було відлуння англійської

oleg.illegal 
Частий відвідувач


З нами з: 04.03.11
Востаннє: 23.08.17
Повідомлень: 41

2012-07-09 13:11  
abodnya
файно!) дякуюємо!)

Ваш часовий пояс: GMT + 2 Години

Нова тема   Відповісти Сторінка:  1, 2  наступна