Завантажити та скачати торренти українською


Створення якісних ріпів за допомогою програми XviD4PSP

Нові коментарі

Нова тема   Відповісти
Сторінка:   попередня  1, 2, 3 ... 13, 14, 15, 16, 17  наступна
Автор Повідомлення
Hentaihunter 
VIP


З нами з: 16.08.08
Востаннє: 26.02.17
Повідомлень: 2233

2013-11-17 18:46  
abodnya написано:
цікаво як тоді він зібрав знову віндову версію

Цитата:
Збирається як би це казково не звучало на маці - 7 спочатку мак версія на object-c, xcode спеціально заточеними тулчейнамі збирає її під вінду (в один клік). Ніяких редістів на винді не використовується, тільки winapi.

XviD4PSP 7.0.19 Win64 Win32 Win64-Debug Win32-Debug Mac64 Mac32
Що нового

Багато фіксів і внутрішніх змін.
DV пресети перемістилися з DV формату в MOV.
Додані BluRay пресети.
Доданий інтерфейс для деінтерлейс-фільтрів.
Доданий інтерфейс для фреймрейт-фільтрів.
Додані швидкі налаштування кодеків.
Доданий Kernel деінтерлейс.
Поправлені помилки при використанні YADIF деінтерлейсу.
Додано режим деінтерлейс YADIF 2X ( подвійна частота кадрів).
Додана можливість не використовувати постійну частоту кадрів.
Додана можливість вибирати мову треку.
Доданий автоматичний інтерлейс фільтр 50/60p > 25/30i для форматів, які вимагають таке перетворення.
Додана можливість вибирати і змінювати порядок треків.
SergoMozaic 
VIP


З нами з: 04.10.09
Востаннє: 04.02.17
Повідомлень: 509

2013-12-30 08:51  
Вітаю.
Що порадите таке ж гарне, але на Лінукс.
Зара користуюся Avidemux, не можу нормально обрізати кропом чорну полосу збоку - получається не стандарт 716.
Може шось не так роблю?
Hentaihunter 
VIP


З нами з: 16.08.08
Востаннє: 26.02.17
Повідомлень: 2233

2013-12-31 18:44  
XviD4PSP 7.0.37 Win64 Win32 Win64-Debug Win32-Debug Mac64 Mac32
Що нового
Дрібні виправлення та внутрішні зміни.
Доданий інтерфейс управління всіма доступними аудіо фільтрами.
Виправлений XHQ пресет.
Кількість необхідних потоків для кодека тепер рахується за віртуальними ядрами.
Додана можливість викликати фільтри для зазначеного потоку.
Виправлено уповільнення кодування на OSX Maverick.
abodnya 
Відео Гуртом - фільмокрай
Відео Гуртом - фільмокрай


З нами з: 02.11.08
Востаннє: 24.02.17
Повідомлень: 5960

2014-01-04 14:33  
SergoMozaic
Спробуй handbrake
SergoMozaic 
VIP


З нами з: 04.10.09
Востаннє: 04.02.17
Повідомлень: 509

2014-01-04 15:12  
Дякую за пораду.
Не подобаються, з різних причин, те що вихідні формати мп4 та мкв.
DaVinci.ua 
VIP


З нами з: 30.12.11
Востаннє: 26.02.17
Повідомлень: 1154

2014-05-13 21:54  
Happy
Hentaihunter 
VIP


З нами з: 16.08.08
Востаннє: 26.02.17
Повідомлень: 2233

2014-06-16 14:07  
XviD4PSP 7.0.73 Win64 Win32 Mac64 Mac32
Що нового
Виправлене читання треків із зовнішніх файлів. Для Win систем спливаючі діалоги тепер стають модальними вікнами. Виправлені різні помилки розмітки контролів під Win системи. Виправлене ​​випадкове блокування введення тексту в налаштуваннях кодеку (бічна панель поки не приймає введення) на Win системах. Виправлені помилки при відкритті BluRay на Win системах. Виправлений виліт на видаленні завдання. Виправлені помилки на примусовому скануванні частоти кадрів і черезрядковості.
ExtremeCat 
Свій


З нами з: 12.10.10
Востаннє: 27.02.17
Повідомлень: 108

2014-10-03 19:02  
зіткнувся з такою проблемою - поставив всі параметри - натиснув "кодувати" - а воно, зараза, на якихось % (наприклад, один ролик зависає на 17.33%) і все далі не йде - може хтось, щось порадити .... ?
Кіндрат Книш 
VIP


З нами з: 13.02.13
Востаннє: 26.02.17
Повідомлень: 733

2014-10-03 19:48  
Andrew_26 написано:
XviD4PSP 5 поганенько перекладений на нашу мову (зустрічається багато російських слів та літер), тож я хочу запропонувати широкому загалу, дещо виправлену українську мову в цій програмі, якщо когось цікавить завантажте звідси!

Забираю. Дякую!
Hentaihunter 
VIP


З нами з: 16.08.08
Востаннє: 26.02.17
Повідомлень: 2233

2014-10-04 07:31  
XviD4PSP 7.0.80 BETA: http://winnydows.com/ru/xvid4psp-7-080-beta/
Крім того, на сайті з'явилися відеуроки з використання програми: http://winnydows.com/ru/роки/
P.S. офсайт програми теж оновлено, для перегляду більше не вимагається жодних сільверлайтів.
JACKUS 
Відео Гуртом - фільмокрай
Відео Гуртом - фільмокрай


З нами з: 08.10.09
Востаннє: 27.02.17
Повідомлень: 1944

2014-10-04 16:35  
Цитата:
зіткнувся з такою проблемою - поставив всі параметри - натиснув "кодувати" - а воно, зараза, на якихось % (наприклад, один ролик зависає на 17.33%) і все далі не йде - може хтось, щось порадити .... ?

Відео з багом просто
Спробуй відео перепакувати в якийсь інший контейнер а поті перекодувати уже
ExtremeCat 
Свій


З нами з: 12.10.10
Востаннє: 27.02.17
Повідомлень: 108

2014-10-04 19:24  
відео зняте на камеру...

а як його перепаковувати ? бо я не дуже розумію - як то воно робиться Happy
JACKUS 
Відео Гуртом - фільмокрай
Відео Гуртом - фільмокрай


З нами з: 08.10.09
Востаннє: 27.02.17
Повідомлень: 1944

2014-10-04 19:36  
Цитата:
а як його перепаковувати ? бо я не дуже розумію - як то воно робиться Happy

Який формат?))
ExtremeCat 
Свій


З нами з: 12.10.10
Востаннє: 27.02.17
Повідомлень: 108

2014-10-04 20:04  
MOV формат
знімався на Canon 600D
JACKUS 
Відео Гуртом - фільмокрай
Відео Гуртом - фільмокрай


З нами з: 08.10.09
Востаннє: 27.02.17
Повідомлень: 1944

2014-10-04 20:39  
Цитата:
MOV формат
знімався на Canon 600D


У програмі XviD4PSP є влкадка інструменти. Там повинна бути програма Yamb. За допомогою цієї програми можна витягнути із контейнера MOV усі кодеки а саме відео і звук. (Там у програмі зайдеш у вкладку Editing і там обереш 3 пункт (Click to Extrackt....) Відкриєш там свій файл і зробиш демукс) Далі за допомогою програми mkvmerge, яка також є у вкладці інструменти, відкриєш той відео файл і збережеш у форматі , але краще зберігай саме відео, без звуку....Потім звук добавиш до готового скодованого відеоряду........)))
ExtremeCat 
Свій


З нами з: 12.10.10
Востаннє: 27.02.17
Повідомлень: 108

2014-10-04 22:06  
Величезне дякую!!!!!!! Буду експерементувати Happy
JACKUS 
Відео Гуртом - фільмокрай
Відео Гуртом - фільмокрай


З нами з: 08.10.09
Востаннє: 27.02.17
Повідомлень: 1944

2014-10-04 22:39  
Цитата:
Величезне дякую!!!!!!! Буду експерементувати Happy

Завжди будь ласка)))
ExtremeCat 
Свій


З нами з: 12.10.10
Востаннє: 27.02.17
Повідомлень: 108

2014-10-05 21:46  
і ще підкажіть будь ласка як додават звук - ато нетямлю Happy
JACKUS 
Відео Гуртом - фільмокрай
Відео Гуртом - фільмокрай


З нами з: 08.10.09
Востаннє: 27.02.17
Повідомлень: 1944

2014-10-06 14:47  
Цитата:
і ще підкажіть будь ласка як додават звук - ато нетямлю Happy


Який контейнер?))
Для avi - VirtualDubMod
Для - Mkvmerge
NeetScrool 
Відео Гуртом - фільмокрай
Відео Гуртом - фільмокрай


З нами з: 10.01.13
Востаннє: 27.02.17
Повідомлень: 2346

2014-10-07 09:31  
ExtremeCat
Для mp4 - Yamb
ExtremeCat 
Свій


З нами з: 12.10.10
Востаннє: 27.02.17
Повідомлень: 108

2014-10-08 15:08  
звук, я так зрозумів з MOV файлу теж видобувати за допомогою програми Yamb ?
igor911 
Відео Гуртом
Відео Гуртом


З нами з: 18.01.08
Востаннє: 27.02.17
Повідомлень: 6018

2014-10-08 15:09  
так
ExtremeCat 
Свій


З нами з: 12.10.10
Востаннє: 27.02.17
Повідомлень: 108

2014-10-08 15:14  
тоді дивно - коли видобуваю звук, він у мене займає 984 кБ - хоча розмір відео 114 мБ і тривалість 21 сек
(і звук не програється в плеєрі)
igor911 
Відео Гуртом
Відео Гуртом


З нами з: 18.01.08
Востаннє: 27.02.17
Повідомлень: 6018

2014-10-08 15:21  
Глянь в медіаінфо на параметри звуку
ExtremeCat 
Свій


З нами з: 12.10.10
Востаннє: 27.02.17
Повідомлень: 108

2014-10-08 17:25  
Ось скрін з медіаінфо
igor911 
Відео Гуртом
Відео Гуртом


З нами з: 18.01.08
Востаннє: 27.02.17
Повідомлень: 6018

2014-10-08 17:30  
я мав на увазі медіаінфо MOV.
ExtremeCat 
Свій


З нами з: 12.10.10
Востаннє: 27.02.17
Повідомлень: 108

2014-10-08 20:35  
Ось:

General
Count : 259
Count of stream of this kind : 1
Kind of stream : General
Kind of stream : General
Stream identifier : 0
Count of video streams : 1
Count of audio streams : 1
Video_Format_List : AVC
Video_Format_WithHint_List : AVC
Codecs Video : AVC
Audio_Format_List : PCM
Audio_Format_WithHint_List : PCM
Audio codecs : PCM
Complete name : C:\Users\FenoMEN\Desktop\MVI_0473.MOV
Folder name : C:\Users\FenoMEN\Desktop
File name : MVI_0473
File extension : mov
Format : MPEG-4
Format : MPEG-4
Format/Extensions usually used : mp4 m4v m4a m4p 3gpp 3gp 3gpp2 3g2 k3g jpm jpx mqv ismv isma
Format profile : QuickTime
Codec ID : qt
Codec ID/Url : http://www.apple.com/quicktime/download/standalone.html
Codec : MPEG-4
Codec : MPEG-4
Codec/Extensions usually used : mp4 m4v m4a m4p 3gpp 3gp 3gpp2 3g2 k3g jpm jpx mqv ismv isma
File size : 120226128
File size : 115 MiB
File size : 115 MiB
File size : 115 MiB
File size : 115 MiB
File size : 114.7 MiB
Duration : 21000
Duration : 21s 0ms
Duration : 21s 0ms
Duration : 21s 0ms
Duration : 00:00:21.000
Overall bit rate : 45800429
Overall bit rate : 45.8 Mbps
Stream size : 102528
Stream size : 100 KiB (0%)
Stream size : 100 KiB
Stream size : 100 KiB
Stream size : 100 KiB
Stream size : 100.1 KiB
Stream size : 100 KiB (0%)
Proportion of this stream : 0.00085
Encoded date : UTC 2014-07-28 13:36:02
Tagged date : UTC 2014-07-28 13:36:02
File creation date : UTC 2014-10-03 08:27:20.584
File creation date (local) : 2014-10-03 11:27:20.584
File last modification date : UTC 2014-07-28 10:36:24.000
File last modification date (loc : 2014-07-28 13:36:24.000

Video
Count : 149
Count of stream of this kind : 1
Kind of stream : Video
Kind of stream : Video
Stream identifier : 0
ID : 1
ID : 1
Format : AVC
Format/Info : Advanced Video Codec
Format/Url : http://developers.videolan.org/.html
Format profile : [email protected]
Format settings : 1 Ref Frames
Format settings, CABAC : No
Format settings, CABAC : No
Format settings, ReFrames : 1
Format settings, ReFrames : 1 frame
Codec ID : avc1
Codec ID/Info : Advanced Video Coding
Codec ID/Url : http://www.apple.com/quicktime/download/standalone.html
Codec : AVC
Codec : AVC
Codec/Family : AVC
Codec/Info : Advanced Video Codec
Codec/Url : http://developers.videolan.org/.html
Codec/CC : avc1
Codec profile : [email protected]
Codec settings : 1 Ref Frames
Codec settings, CABAC : No
Codec_Settings_RefFrames : 1
Duration : 21000
Duration : 21s 0ms
Duration : 21s 0ms
Duration : 21s 0ms
Duration : 00:00:21.000
Bit rate mode : VBR
Bit rate mode : Variable
Bit rate : 44225371
Bit rate : 44.2 Mbps
Width : 1280
Width : 1 280 pixels
Height : 720
Height : 720 pixels
Pixel aspect ratio : 1.000
Display aspect ratio : 1.778
Display aspect ratio : 16:9
Rotation : 0.000
Frame rate mode : CFR
Frame rate mode : Constant
Frame rate : 50.000
Frame rate : 50.000 fps
Frame count : 1050
Resolution : 24
Resolution : 24 bits
Colorimetry : 4:2:0
Scan type : Progressive
Scan type : Progressive
Interlacement : PPF
Interlacement : Progressive
Bits/(Pixel*Frame) : 0.960
Stream size : 116091600
Stream size : 111 MiB (97%)
Stream size : 111 MiB
Stream size : 111 MiB
Stream size : 111 MiB
Stream size : 110.7 MiB
Stream size : 111 MiB (97%)
Proportion of this stream : 0.96561
Encoded date : UTC 2014-07-28 13:36:02
Tagged date : UTC 2014-07-28 13:36:02
colour_primaries : BT.709-5, BT.1361, IEC 61966-2-4, SMPTE RP177
transfer_characteristics : BT.709-5, BT.1361
matrix_coefficients : BT.601-6 525, BT.1358 525, BT.1700 NTSC, SMPTE 170M

Audio
Count : 122
Count of stream of this kind : 1
Kind of stream : Audio
Kind of stream : Audio
Stream identifier : 0
ID : 2
ID : 2
Format : PCM
Format settings : Little / Signed
Format settings, Endianness : Little
Format settings, Sign : Signed
Codec ID : sowt
Codec ID/Url : http://www.apple.com/quicktime/download/standalone.html
Codec : PCM
Codec : PCM
Codec/Family : PCM
Codec/Url : http://www.apple.com/quicktime/download/standalone.html
Codec/CC : sowt
Codec settings : Little / Signed
Codec settings, Endianness : Little
Codec settings, Sign : Signed
Duration : 21000
Duration : 21s 0ms
Duration : 21s 0ms
Duration : 21s 0ms
Duration : 00:00:21.000
Bit rate mode : CBR
Bit rate mode : Constant
Bit rate : 1536000
Bit rate : 1 536 Kbps
Channel(s) : 2
Channel(s) : 2 channels
Sampling rate : 48000
Sampling rate : 48.0 KHz
SamplingCount : 1008000
Resolution : 16
Resolution : 16 bits
Stream size : 4032000
Stream size : 3.85 MiB (3%)
Stream size : 4 MiB
Stream size : 3.8 MiB
Stream size : 3.85 MiB
Stream size : 3.845 MiB
Stream size : 3.85 MiB (3%)
Proportion of this stream : 0.03354
Encoded date : UTC 2014-07-28 13:36:02
Tagged date : UTC 2014-07-28 13:36:02
igor911 
Відео Гуртом
Відео Гуртом


З нами з: 18.01.08
Востаннє: 27.02.17
Повідомлень: 6018

2014-10-08 20:43  
Таке велике "простирадло" треба ховати під спойлер
Код:
[spoiler]довгий текст[/spoiler]
ExtremeCat 
Свій


З нами з: 12.10.10
Востаннє: 27.02.17
Повідомлень: 108

2014-10-08 20:44  
вибачаюсь - був не в курсі !
igor911 
Відео Гуртом
Відео Гуртом


З нами з: 18.01.08
Востаннє: 27.02.17
Повідомлень: 6018

2014-10-08 20:45  
щодо доріжки то в мене чудово витягує звук PCM з відео від canon"а
Ваш часовий пояс: GMT + 2 Години

Нова тема   Відповісти Сторінка:   попередня  1, 2, 3 ... 13, 14, 15, 16, 17  наступна