Секрет Робінсонів / Meet The Robinsons (2007) 720p Ukr/Eng | Sub Eng

Нові коментарі

Нова тема   Відповісти
Автор Повідомлення
braveboy 
Відео Гуртом - команда HD
Відео Гуртом - команда HD


З нами з: 15.06.10
Востаннє: 13.08.17
Повідомлень: 949

2010-11-02 21:09  

Секрет Робінсонів / Meet The Robinsons (2007) 720p Ukr/Eng | Sub Eng


Секрет Робінсонів / Meet The Robinsons (2007) 720p Ukr/Eng | Sub Eng

Українські постери




Жанр: анімація, дитячий, сімейний
Країна: США



Кіностудія / кінокомпанія: Walt Disney Pictures
Режисер: Стівен Дж. Андерсон
Ролі озвучують: Анджела Басет, Деніел Хансен, Джордан Фрай, Джон Форд, Том Кенні, Лорі Меткалф, Дон Хол, Пол Батчер, Уеслі Сінгерман, Джессі Флауер, Стівен Дж. Андерсон, Етан Сендлер, Харланд Вільямс, Келлі Гувер, Адам Уест, Ніколь Салліван

Сюжет:
Блискучий юний винахідник на ім’я Льюїс вирушає у подорож в часі, аби познайомитись із сім’єю, яку він не знав до цього. У фантастичному світі 2037 року жаби гіп-гопери і собаки у сонячних окулярах – таке ж звичне явище, як і динозаври, які розмовляють. Завдяки дивовижній випадковості Льюїс відкриває, що доля майбутнього знаходиться в його руках, але він не може врятувати його сам-один – йому знадобиться допомога з боку надзвичайної сім’ї Робінсонів, котрі навчать його рухатися тільки уперед, ніколи не відступати і завжди вірити у власні сили.



Тривалість: 01:30:38
Якість: 720p
Відео:
кодек:
розмір кадру: 1280 х 720
бітрейт: 4208 кб/с

Аудіо # 1:
мова: українська
переклад: професійний дубльований
кодек: 5.1
бітрейт: 384 кб/с

Аудіо # 2:
мова: англійська
переклад: оригінал
кодек: 5.1
бітрейт: 640 кб/с

Переклад і озвучення виконано:


Субтитри:
мова: англійська (Full,SDH)
тип: програмні (м'які)
формат: *.srt
Info

Video
ID : 1
Format : AVC
Format/Info : Advanced Video Codec
Format profile : [email protected]
Format settings, CABAC : Yes
Format settings, ReFrames : 8 frames
Codec ID : V_MPEG4/ISO/AVC
Duration : 1h 34mn
Bit rate : 4 208 Kbps
Width : 1 280 pixels
Height : 720 pixels
Display aspect ratio : 16:9
Frame rate mode : Constant
Frame rate : 23.976 fps
Color space : YUV
Chroma subsampling : 4:2:0
Bit depth : 8 bits
Scan type : Progressive
Bits/(Pixel*Frame) : 0.190
Stream size : 2.78 GiB (79%)
Writing library : core 119 r2106kMod 07efeb4
Encoding settings : cabac=1 / ref=8 / deblock=1:-3:-3 / analyse=0x3:0x113 / me=umh / subme=11 / psy=1 / fade_compensate=0.00 / psy_rd=1.00:0.00 / mixed_ref=1 / me_range=48 / chroma_me=1 / trellis=2 / 8x8dct=1 / cqm=0 / deadzone=21,11 / fast_pskip=1 / chroma_qp_offset=-2 / threads=12 / sliced_threads=0 / nr=0 / decimate=1 / interlaced=0 / bluray_compat=0 / constrained_intra=0 / bframes=8 / b_pyramid=2 / b_adapt=2 / b_bias=0 / direct=1 / weightb=1 / open_gop=0 / weightp=2 / keyint=250 / keyint_min=23 / scenecut=40 / intra_refresh=0 / rc_lookahead=40 / rc=crf / mbtree=0 / crf=16.6000 / qcomp=0.70 / qpmin=0 / qpmax=69 / qpstep=4 / vbv_maxrate=50000 / vbv_bufsize=62500 / crf_max=0.0 / nal_hrd=none / ip_ratio=1.40 / pb_ratio=1.30 / aq=2:1.00
Language : English
Default : Yes
Forced : No
Matrix coefficients : BT.709
DURATION : 01:34:30.665000000
NUMBER_OF_FRAMES : 135960
NUMBER_OF_BYTES : 3056333789
_STATISTICS_WRITING_APP : mkvmerge v7.1.0 ('Good Love') 64bit built on Jul 27 2014 13:06:55
_STATISTICS_WRITING_DATE_UTC : 2014-08-27 15:49:59
_STATISTICS_TAGS : BPS DURATION NUMBER_OF_FRAMES NUMBER_OF_BYTES

Audio #1
ID : 2
Format : AC-3
Format/Info : Audio Coding 3
Mode extension : CM (complete main)
Format settings, Endianness : Big
Codec ID : A_AC3
Duration : 1h 34mn
Bit rate mode : Constant
Bit rate : 384 Kbps
Channel(s) : 6 channels
Channel positions : Front: L C R, Side: L R, LFE
Sampling rate : 48.0 KHz
Bit depth : 16 bits
Compression mode : Lossy
Stream size : 260 MiB (7%)
Title : 5.1 @ 384 kbps
Language : Ukrainian
Default : Yes
Forced : No

Audio #2
ID : 3
Format : AC-3
Format/Info : Audio Coding 3
Mode extension : CM (complete main)
Format settings, Endianness : Big
Codec ID : A_AC3
Duration : 1h 34mn
Bit rate mode : Constant
Bit rate : 640 Kbps
Channel(s) : 6 channels
Channel positions : Front: L C R, Side: L R, LFE
Sampling rate : 48.0 KHz
Bit depth : 16 bits
Compression mode : Lossy
Stream size : 433 MiB (12%)
Title : 5.1 @ 640 kbps
Language : English
Default : No
Forced : No

Text #1
ID : 4
Format : UTF-8
Codec ID : S_TEXT/UTF8
Codec ID/Info : UTF-8 Plain Text
Title : Full
Language : English
Default : No
Forced : No

Text #2
ID : 5
Format : UTF-8
Codec ID : S_TEXT/UTF8
Codec ID/Info : UTF-8 Plain Text
Title : SDH
Language : English
Default : No
Forced : No

Menu
00:00:00.000 : en:An Orphan
00:07:55.308 : en:The Memory Scanner
00:09:32.070 : en:The Science Fair
00:18:37.074 : en:Wilbur
00:21:27.578 : en:Arriving in the Future
00:22:53.038 : en:Crash Landing
00:25:17.725 : en:The Bowler Hat Guy
00:29:53.125 : en:Meeting the Family
00:38:59.003 : en:Bad Advice for Goob
00:41:39.288 : en:Keep Moving Forward
00:44:27.123 : en:A Mini-Doris
00:45:51.707 : en:Staying for Dinner
00:48:39.667 : en:An Awesome Failure
00:53:00.094 : en:The T-Rex Attack
00:57:29.738 : en:Part of the Family
01:02:13.897 : en:Doris' Brilliant Plan
01:08:39.198 : en:A Frightening Future
01:15:30.651 : en:We Are One Smart Kid
01:23:09.693 : en:Lewis Finds His Family
01:27:50.055 : en:End Credits
Скріншоти:







Джерело:
Особиста оцінка: 10 - без зайвих вагань рекомендую всім!


 Трекер:    Зареєстрований   

Завантажити / скачати мультфільм українською



відео для новачків



 Зареєстрований:   2014-08-27 19:27
 Розмір:   3.52 GB 
 Оцінка мультфільму:   9.3/10 (Голосів: 48)
   
printmanager 
Новенький


З нами з: 02.03.09
Востаннє: 26.05.17
Повідомлень: 12

2011-01-08 02:35  
Трохи розсинхрон є. Дивився перші 12 хв, потім завантажив з іншої роздачі. Прикро.
TeamUkraine 
Свій


З нами з: 01.05.10
Востаннє: 05.08.11
Повідомлень: 65

2011-01-08 02:50  
Робінзонів - коли вже буде так Wink (2)
Gelios 
Відео Гуртом - дизайнер
Відео Гуртом - дизайнер


З нами з: 03.09.11
Востаннє: 02.08.17
Повідомлень: 2086

2012-07-14 11:17  
Постер:

Секрет Робінсонів / Meet The Robinsons (2007)


Teren_UA 
Новенький


З нами з: 13.10.11
Востаннє: 09.05.17
Повідомлень: 5

2012-11-11 13:45  
Поза всяким сумнівом, один із кращих мультів, які я коли небуть бачив. Музика - взагалі шик!
Nia Night 
Новенький


З нами з: 17.11.14
Востаннє: 31.07.17
Повідомлень: 6

2017-01-08 00:26  
Чесно, мультфільм виглядає так наче під вікнами студії Діснею росте підозріла травка, але тим не менш залишились хороші враження. Особливо захопила кінцівка. Кому потрібна мотивація раджу подивитись)

До речі, оригінальна назва більше підходить до сюжету мультфільму, ніж її українська версія. Як завжди дефекти перекладу)

Ставлю 8)

Ваш часовий пояс: GMT + 2 Години

Нова тема   Відповісти