Хортон / Horton Hears a Who! (2008) 720p Ukr/Eng | Sub Ukr/Eng

Нові коментарі

Нова тема   Відповісти
Автор Повідомлення
braveboy 
Відео Гуртом - команда HD
Відео Гуртом - команда HD


З нами з: 15.06.10
Востаннє: 13.08.17
Повідомлень: 949

2010-10-28 21:50  

Хортон / Horton Hears a Who! (2008) 720p Ukr/Eng | Sub Ukr/Eng


Хортон / Horton Hears a Who! (2008) 720p Ukr/Eng | Sub Ukr/Eng


Жанр: анімація, комедія, сімейний
Країна: США



Кіностудія / кінокомпанія: Blue Sky Studios
Режисер: Джим Хейворд, Стів Мартіно
Ролі озвучують: Джим Керрі(DJ Паша), Стів Керел(В. Зеленський), Керол Барнетт, Уілл Арнетт, Сет Роген, Ден Фоглер, Айла Фішер

Сюжет:
Хортон - надміру цікаве слоненя (як, утім, і всі вони, тож дивуватися не варто). Та лісова громада вважає його неадекватним - адже Хортону постійно щось верзеться. Та це - не тривожні симптоми, а всього-на-всього унікальний, надзвичайно гострий слух. Його благають про допомогу крихітні істоти - хтоськи, які заснували місто Хтовілль розміром із пилинку. І добрий Хортон вирішує за будь-яку ціну порятувати малечу від загрози. Адже, за його філософією, "жива істота - це жива істота, незалежно від розміру".



Тривалість: 1:23:48
Якість: 720p
Відео:
кодек:
розмір кадру: 1280 x 692
бітрейт: 5347 кб/с

Аудіо # 1:
мова: українська
переклад: професійний дубльований
кодек: 5.1
бітрейт: 384 кб/с

Аудіо # 2:
мова: англійська
переклад: оригінал
кодек: 5.1
бітрейт: 1509 кб/с

Переклад і озвучення виконано:


Субтитри:
мова: українська
тип: програмні (м'які)
формат: *.srt

Субтитри:
мова:англійська
тип: програмні (м'які)
формат: *.srt
720p by braveboy
Info

Video
ID : 1
Format : AVC
Format/Info : Advanced Video Codec
Format profile : [email protected]
Format settings, CABAC : Yes
Format settings, ReFrames : 8 frames
Codec ID : V_MPEG4/ISO/AVC
Duration : 1h 26mn
Bit rate : 5 347 Kbps
Width : 1 280 pixels
Height : 692 pixels
Display aspect ratio : 1.85:1
Frame rate mode : Constant
Frame rate : 23.976 fps
Color space : YUV
Chroma subsampling : 4:2:0
Bit depth : 8 bits
Scan type : Progressive
Bits/(Pixel*Frame) : 0.252
Stream size : 3.13 GiB (72%)
Title : Horton Hears a Who! (2008) 720p by braveboy
Writing library : core 129 r2245 bc13772
Encoding settings : cabac=1 / ref=8 / deblock=1:-3:-3 / analyse=0x3:0x133 / me=umh / subme=10 / psy=1 / psy_rd=0.85:0.00 / mixed_ref=1 / me_range=34 / chroma_me=1 / trellis=2 / 8x8dct=1 / cqm=0 / deadzone=21,11 / fast_pskip=0 / chroma_qp_offset=-2 / threads=6 / lookahead_threads=1 / sliced_threads=0 / nr=0 / decimate=0 / interlaced=0 / bluray_compat=0 / constrained_intra=0 / bframes=6 / b_pyramid=2 / b_adapt=2 / b_bias=0 / direct=1 / weightb=1 / open_gop=0 / weightp=2 / keyint=240 / keyint_min=24 / scenecut=40 / intra_refresh=0 / rc=2pass / mbtree=0 / bitrate=5347 / ratetol=1.0 / qcomp=0.60 / qpmin=10 / qpmax=51 / qpstep=4 / cplxblur=20.0 / qblur=0.5 / ip_ratio=1.40 / pb_ratio=1.30 / aq=1:1.00
Default : Yes
Forced : No

Audio #1
ID : 2
Format : AC-3
Format/Info : Audio Coding 3
Mode extension : CM (complete main)
Format settings, Endianness : Big
Codec ID : A_AC3
Duration : 1h 26mn
Bit rate mode : Constant
Bit rate : 384 Kbps
Channel(s) : 6 channels
Channel positions : Front: L C R, Side: L R, LFE
Sampling rate : 48.0 KHz
Bit depth : 16 bits
Compression mode : Lossy
Stream size : 237 MiB (5%)
Title : 5.1 @ 384 kbps [DVD]
Language : Ukrainian
Default : Yes
Forced : No

Audio #2
ID : 3
Format :
Format/Info : Digital Theater Systems
Mode : 16
Format settings, Endianness : Big
Codec ID : A_DTS
Duration : 1h 26mn
Bit rate mode : Constant
Bit rate : 1 509 Kbps
Channel(s) : 6 channels
Channel positions : Front: L C R, Side: L R, LFE
Sampling rate : 48.0 KHz
Bit depth : 24 bits
Compression mode : Lossy
Stream size : 930 MiB (21%)
Title : 5.1 @ 1509 kbps
Language : English
Default : No
Forced : No

Text #1
ID : 4
Format : UTF-8
Codec ID : S_TEXT/UTF8
Codec ID/Info : UTF-8 Plain Text
Title : Full
Language : Ukrainian
Default : No
Forced : No

Text #2
ID : 5
Format : ASS
Codec ID : S_TEXT/ASS
Codec ID/Info : Advanced Sub Station Alpha
Compression mode : Lossless
Title : Full
Language : English
Default : No
Forced : No

Menu
00:00:00.000 : en:00:00:00.000
00:02:43.330 : en:00:02:43.330
00:04:02.409 : en:00:04:02.409
00:05:57.566 : en:00:05:57.566
00:08:20.542 : en:00:08:20.542
00:10:52.569 : en:00:10:52.569
00:12:10.271 : en:00:12:10.271
00:13:27.432 : en:00:13:27.432
00:15:57.790 : en:00:15:57.790
00:18:59.930 : en:00:18:59.930
00:21:08.142 : en:00:21:08.142
00:24:46.652 : en:00:24:46.652
00:26:00.476 : en:00:26:00.476
00:28:03.557 : en:00:28:03.557
00:29:33.605 : en:00:29:33.605
00:32:03.713 : en:00:32:03.713
00:36:10.585 : en:00:36:10.585
00:40:41.814 : en:00:40:41.814
00:42:33.176 : en:00:42:33.176
00:46:15.356 : en:00:46:15.356
00:48:36.247 : en:00:48:36.247
00:51:07.731 : en:00:51:07.731
00:53:13.565 : en:00:53:13.565
00:56:59.291 : en:00:56:59.291
00:59:23.185 : en:00:59:23.185
01:04:25.904 : en:01:04:25.904
01:07:00.016 : en:01:07:00.016
01:10:00.738 : en:01:10:00.738
01:12:06.697 : en:01:12:06.697
01:15:28.524 : en:01:15:28.524
01:17:53.335 : en:01:17:53.335
01:19:37.189 : en:01:19:37.189
Скріншоти:




Особиста оцінка: 10 - без зайвих вагань рекомендую всім!


 Трекер:    Зареєстрований   

Завантажити / скачати мультфільм українською



відео для новачків



 Зареєстрований:   2013-07-09 21:09
 Розмір:   4.36 GB 
 Оцінка мультфільму:   9.9/10 (Голосів: 53)
   
Інші релізи
   Хортон / Horton Hears a Who! (2008) 720p-mini Ukr/Eng ThEO  9 / 0   2.42 GB   2011-07-25 22:58 
   Хортон / Horton Hears a Who! (2008) 1080p Ukr/Eng | Sub Multi prodig  3 / 0   6.79 GB   2010-04-21 02:31 
   Хортон / Horton Hears a Who! (2008) Anonymous  8 / 1   1.36 GB   2008-04-18 14:56 
karvai0 
Відео Гуртом - запис з ТБ
Відео Гуртом - запис з ТБ


З нами з: 18.01.10
Востаннє: 11.08.17
Повідомлень: 3677

2010-10-28 21:56  
чий рiп?
braveboy 
Відео Гуртом - команда HD
Відео Гуртом - команда HD


З нами з: 15.06.10
Востаннє: 13.08.17
Повідомлень: 949

2010-10-28 21:59  
karvai0
torrents.net.ua

karvai0 
Відео Гуртом - запис з ТБ
Відео Гуртом - запис з ТБ


З нами з: 18.01.10
Востаннє: 11.08.17
Повідомлень: 3677

2010-10-28 22:14  
igorgladunyak написано:

karvai0
http://torrents.net.ua

краще б було якщо б рiп був вiд HQ-ViDEO... у них рiп набагато кращий... може переробиш? поки не начали завантажувати або якщо хочеш я завтра виставлю

fazza 
Модератор відео


З нами з: 29.05.08
Востаннє: 07.08.17
Повідомлень: 797

2010-10-28 23:20  
так що з релізом ???
де торрент-файл ???

karvai0 
Відео Гуртом - запис з ТБ
Відео Гуртом - запис з ТБ


З нами з: 18.01.10
Востаннє: 11.08.17
Повідомлень: 3677

2010-10-28 23:50  
дякую, тепер набагато краще... забераю
urij546724 
Відео Гуртом - фільмокрай
Відео Гуртом - фільмокрай


З нами з: 16.03.10
Востаннє: 19.08.17
Повідомлень: 5219

2010-10-29 12:22  
Тему почистив і підправив попередній коментар, щоб не було притензій.
малюк94 
VIP


З нами з: 03.03.10
Востаннє: 20.08.17
Повідомлень: 411

2010-11-07 17:04  
станьте на роздачу!!
GolohvastOFF 
Новенький


З нами з: 21.11.10
Востаннє: 26.01.16
Повідомлень: 2

2010-11-27 21:41  
Дякую, чудовий мульт) подивлюсь з укр.перекладом
maryruz 
Новенький


З нами з: 11.02.11
Востаннє: 20.07.15
Повідомлень: 2

2012-09-17 15:49  
станьте на роздачу, пліз...
bot 
робот


З нами з: 30.09.07
Востаннє: 26.05.05
Повідомлень: 17412

2013-07-09 21:29  
Тему перенесено з Мультфільми до форуму Мультфільми в HD


braveboy

BMK12 
Відео Гуртом - підтримка та поширення
Відео Гуртом - підтримка та поширення


З нами з: 13.04.09
Востаннє: 23.08.17
Повідомлень: 3110

2013-10-30 22:56  
Прохання роздати.
ScienceDiscoverer 
Свій


З нами з: 15.05.09
Востаннє: 22.08.17
Повідомлень: 58

2014-06-20 06:54  
Влад-Азіров неперевершений) Просто бімба!
Кіндрат Книш 
VIP


З нами з: 13.02.13
Востаннє: 20.08.17
Повідомлень: 752

2014-09-04 20:28  
Ніііі, єдиний і неповторний мульт-Азаров - це Зімбо зі "Справжніх монстрів".
А Влад - максимум Мінаєв "Підпис здесь".

Ваш часовий пояс: GMT + 2 Години

Нова тема   Відповісти