Лео - Люмінофори (2005) [FLAC] | Lounge / Easy listening

Нові коментарі

Нова тема   Відповісти
Автор Повідомлення
Lev 
VIP


З нами з: 14.10.09
Востаннє: 19.08.17
Повідомлень: 1819

2010-10-03 18:31  
Лео - Люмінофори (2005) [FLAC] | Lounge / Easy listening



Стиль: Lounge / Easy listening
Країна, місто: Україна, Київ
Видавець: СПД Мельничук
Виконавці:
Леонід Бєлєй - акордеон, електрогітара, синтезатор, семпли та лупи, музика, аранжування

звукорежисура - Леонід Бєлєй та Андрій Обод
Пісні:
    01 - Такий близький далекий берег (02:57)
    02 - Нічні ліхтарі (03:58)
    03 - Easy Evening (06:09)
    04 - Амфібії (03:05)
    05 - Парафінові кульки (04:19)
    06 - Культпохід (02:07)
    07 - Zooтроп (02:43)
    08 - Люмінофори (04:10)
    09 - Водолази (02:27)
    10 - Multimedia Jam Session (01:43)
    11 - Острови так швидко змінюють колір (04:17)
    12 - Мелодія телефонних доріг (03:25)
    log
    Exact Audio Copy V0.99 prebeta 5 from 4. May 2009

    EAC extraction logfile from 3. October 2010, 17:05

    Лео / Люмінофори

    Used drive : TEAC CD-W540E Adapter: 1 ID: 0

    Read mode : Secure
    Utilize accurate stream : Yes
    Defeat audio cache : Yes
    Make use of C2 pointers : No

    Read offset correction : 686
    Overread into Lead-In and Lead-Out : No
    Fill up missing offset samples with silence : Yes
    Delete leading and trailing silent blocks : No
    Null samples used in CRC calculations : Yes
    Used interface : Installed external ASPI interface
    Gap handling : Not detected, thus appended to previous track

    Used output format : Internal WAV Routines
    Sample format : 44.100 Hz; 16 Bit; Stereo

    TOC of the extracted CD

    Track | Start | Length | Start sector | End sector
    ---------------------------------------------------------
    1 | 0:00.00 | 2:57.09 | 0 | 13283
    2 | 2:57.09 | 3:58.29 | 13284 | 31162
    3 | 6:55.38 | 6:09.22 | 31163 | 58859
    4 | 13:04.60 | 3:05.29 | 58860 | 72763
    5 | 16:10.14 | 4:19.28 | 72764 | 92216
    6 | 20:29.42 | 2:07.30 | 92217 | 101771
    7 | 22:36.72 | 2:43.37 | 101772 | 114033
    8 | 25:20.34 | 4:10.26 | 114034 | 132809
    9 | 29:30.60 | 2:27.74 | 132810 | 143908
    10 | 31:58.59 | 1:43.63 | 143909 | 151696
    11 | 33:42.47 | 4:17.33 | 151697 | 171004
    12 | 38:00.05 | 3:25.71 | 171005 | 186450

    Track 1

    Filename G:\Лео - Люмінофори [2005] FLAC\Track01.wav

    Peak level 98.8 %
    Track quality 100.0 %
    Test CRC 94B57B43
    Copy CRC 94B57B43
    Track not present in AccurateRip database
    Copy OK

    Track 2

    Filename G:\Лео - Люмінофори [2005] FLAC\Track02.wav

    Peak level 98.8 %
    Track quality 99.9 %
    Test CRC DE4C9F6D
    Copy CRC DE4C9F6D
    Track not present in AccurateRip database
    Copy OK

    Track 3

    Filename G:\Лео - Люмінофори [2005] FLAC\Track03.wav

    Peak level 98.8 %
    Track quality 100.0 %
    Test CRC 377B6C2F
    Copy CRC 377B6C2F
    Track not present in AccurateRip database
    Copy OK

    Track 4

    Filename G:\Лео - Люмінофори [2005] FLAC\Track04.wav

    Peak level 98.8 %
    Track quality 100.0 %
    Test CRC F390641E
    Copy CRC F390641E
    Track not present in AccurateRip database
    Copy OK

    Track 5

    Filename G:\Лео - Люмінофори [2005] FLAC\Track05.wav

    Peak level 98.8 %
    Track quality 100.0 %
    Test CRC A08FA1B3
    Copy CRC A08FA1B3
    Track not present in AccurateRip database
    Copy OK

    Track 6

    Filename G:\Лео - Люмінофори [2005] FLAC\Track06.wav

    Peak level 98.8 %
    Track quality 100.0 %
    Test CRC B256A140
    Copy CRC B256A140
    Track not present in AccurateRip database
    Copy OK

    Track 7

    Filename G:\Лео - Люмінофори [2005] FLAC\Track07.wav

    Peak level 98.8 %
    Track quality 100.0 %
    Test CRC 9C38313A
    Copy CRC 9C38313A
    Track not present in AccurateRip database
    Copy OK

    Track 8

    Filename G:\Лео - Люмінофори [2005] FLAC\Track08.wav

    Peak level 98.8 %
    Track quality 100.0 %
    Test CRC 8FFF7197
    Copy CRC 8FFF7197
    Track not present in AccurateRip database
    Copy OK

    Track 9

    Filename G:\Лео - Люмінофори [2005] FLAC\Track09.wav

    Peak level 98.8 %
    Track quality 100.0 %
    Test CRC B9C55C5E
    Copy CRC B9C55C5E
    Track not present in AccurateRip database
    Copy OK

    Track 10

    Filename G:\Лео - Люмінофори [2005] FLAC\Track10.wav

    Peak level 98.8 %
    Track quality 99.9 %
    Test CRC B4F34123
    Copy CRC B4F34123
    Track not present in AccurateRip database
    Copy OK

    Track 11

    Filename G:\Лео - Люмінофори [2005] FLAC\Track11.wav

    Peak level 98.8 %
    Track quality 100.0 %
    Test CRC 4AFF5AD7
    Copy CRC 4AFF5AD7
    Track not present in AccurateRip database
    Copy OK

    Track 12

    Filename G:\Лео - Люмінофори [2005] FLAC\Track12.wav

    Peak level 98.8 %
    Track quality 100.0 %
    Test CRC 3235419C
    Copy CRC 3235419C
    Track not present in AccurateRip database
    Copy OK

    None of the tracks are present in the AccurateRip database

    No errors occurred

    End of status report

Тривалість: 00:41:20
Мова: українська
Аудіо-кодек: FLAC
Бітрейт: 716-928 кб/с
Джерело: власний диск > ріп EAC
Додаткова інформація:
Єдиний альбом мега-зачотного сайд-проекту акордеоніста групи "Мандри" у найкращій якості ! Попри електронні елементи, проект має багато рис живого звучання, будучи прикладом гармонійного поєднання різнорідних звукових засобів.


Також на Торрент-Толоці Гуртом ви можете знайти :

Лео - Люмінофори (2005) [MP3]


Якщо Ви справді бажаєте підтримати українське - після прослуховування, якщо музика вам сподобалась, придбайте ліцензійний диск. Підтримаймо вітчизняних виконавців!


Срібний реліз (на рейтинг впливає 50% завантаженого)
 Трекер:    Зареєстрований   

Завантажити / скачати українську музику



відео для новачків



 Зареєстрований:   2010-10-03 18:31
 Розмір:   244 MB 
 Оцінка музики:   9.5/10 (Голосів: 13)
   
ahilbaca 
Свій


З нами з: 04.12.09
Востаннє: 19.08.17
Повідомлень: 118

2011-04-12 01:09  
Цікава і неординарна музичка. У певних місцях Амелі нагадує.
Ваш часовий пояс: GMT + 2 Години

Нова тема   Відповісти