Футурама (Сезон 6) / Futurama (Season 6) (2010-2011) 720p 4xUkr/8xRus/Eng

Нові коментарі

Нова тема   Відповісти
Сторінка:  1, 2  наступна
Автор Повідомлення
LonerD 
Свій


З нами з: 02.06.10
Востаннє: 14.03.21
Повідомлень: 92

2010-10-02 14:47  
Футурама (Сезон 6) / Futurama (Season 6) (2010) 720p 4xUkr/8xRus/Eng



Жанр: анімація, фантастика, комедія
Країна: США



Режисер: Matt Groening / Мет Грюнінг
Ролі озвучували в англійській версії - Billy West / Біллі Вест, Katey Sagal / Кеті Сагал, John DiMaggio / Джон ДіМаджіо, Tress MacNeille /Тресс МасНіл та інші гарні люди.
Сюжет:
"Футурама" - це історія пересічного американського хлопця Філіпа Джея Фрая, що був випадково заморожений у кріогенній камері, а розморожений лише тисячу років потому. В 3000 році Фрай знайомиться з роботом Бендером, інопланетною дівчиною Лілою і своїм пра-пра-пра-пра-пра-племінником, професором Х'юбертом Фарнсвордом, який пропонує йому роботу в службі міжпланетних перевезень.


Тривалість: кожна серія: 22:00 (цілком серій: 26)
Перелік серій
6x01 Rebirth / Возрождение / Переродження
6x02 In-A-Gadda-Da-Leela / VO-Саду-Ли-Ого-Лила / У-Садку-Чи-Ого-Ліла
6x03 Attack of the Killer App / Атака убийственного приложения / Напад Додатка Вбивці!
6x04 Proposition Infinity / Проект "Бесконечность" / Поправка Нескінченність
6x05 The Duh-Vinci Code / Код Нда-Винчи / Код Ду-Вінчі
6x06 Lethal Inspection / Летальная Инспекция / Летальна інспекция
6x07 The Late Philip J. Fry / Опоздавший Филипп Джей Фрай / Запізнившийся Філіп Джей Фрай
6x08 That Darn Katz! / Этот проклятый Котовский! / Ці прокляті Котовські
6x09 A Clockwork Origin / Заводное происхождение / Заводне походження
6x10 The Prisoner of Benda / Узник Гнуты / В'язень Бенда
6x11 Lrrreconcilable Ndndifferences / Нелюрррмеримые Ндндтиворечия / Lrrreconcilable Ndndifferences
6x12 The Mutants Are Revolting / Мутанты взбунтовались / Повстання мутантів
6x13 The Futurama Holiday Spectacular / Праздничный выпуск / Святковий випуск
6x14 The Silence of the Clamps / Молчание Клешней / Мовчання клешней
6x15 Mobius Dick / Мебиус Дик / Мьобіус Дик
6x16 Law and Oracle / Закон и Оракул / Закон і Оракул
6x17 Benderama / Бендерама / Бендерама
6x18 The Tip of the Zoidberg / Совет Зойдберга / Порада Зойдберга
6x19 Ghost in the Machines / Призрак в машинах / Привид в машині
6x20 Neutopia / Неутопия / Неутопія
6x21 Yo Leela Leela / Привет, Лила, Лила / Йоу, Ліло, Ліло
6x22 Fry am the Egg Man / Фрай, хранитель яйца / Фрай - людина-яйце
6x23 All the Presidents' Heads / Все президентские головы / Всі президентські голови
6x24 Cold Warriors / Простуженные воины / Застуджені воїни
6x25 Overclockwise / По часовой стрелке / За годинниковою стрілкою
6x26 Reincarnation / Реинкарнация / Реінкарнація
Якість: 720p (EbP) - 1-13 серії
Якість: 720p (REWARD) - 14-26 серії
Відео:
кодек:
розмір кадру: 1280 х 720
бітрейт: 2500-3000 кб/с
частота кадрів: 23.976 fps
Озвучки

Аудіо # 1:
мова: українська
озвучка: професійна багатоголоса QTV (601-613)
аудіо: 2.0, 192 kbps
Запис з ТБ: 4erkov, tupak Зведення: 4erkov

Аудіо # 2:
мова: українська
озвучка: професійна Омікрон дубльована (601-605), закадрова (606,614-626)
аудіо: 2.0, 384 kbps (601-606,616-617,619-620)
аудіо: 5.1, 384 kbps (618,621-626)
Зведення: LonerD

Аудіо # 3:
мова: українська
озвучка: одноголоса закадрова yuraflash (1 серія), ua2004 (2 - 13 серії)
аудіо: 5.1, 384 кб/с (601-606), 2.0, 192 кб/с (607-613)
Переклад: KeyBі, Mirqn, EL Barto, Анастасія Ковбасенко, Andick, padfoo
Монтаж: oleggutsalo, bodia87, PuMa.ua, Andick, gizmo_fbi, Vitall_HD, Busted

Аудіо # 4:
мова: російська
озвучка: багатоголоса LostFilm (601-626)
аудіо: 2.0, 192 кб/с
Зведення: uxTuaHgp, anykey-a

Аудіо # 5:
мова: російська
озвучка: двоголоса Кубик в Кубє (601-626)
аудіо: 2.0, 192 кб/с
Зведення:uxTuaHgp, anykey-a

Аудіо # 6:
мова: російська
озвучка: багатоголоса VO Production (601-613)
аудіо: 5.1, 384 кб/с (601-613), 2.0, 192 кб/с (614-626)
Зведення:SerGoLeOne, anykey-a

Аудіо # 7:
мова: російська
озвучка: трьохголоса 2x2 (601-613)
аудіо: 2.0, 192 кб/с
Зведення:uxTuaHgp

Аудіо # 8:
мова: українська
озвучка: двоголоса Yuraflash+Yul (601,602,607,608)
аудіо: 2.0, 192 кб/с
Зведення:LonerD

Аудіо # 9:
мова: російська
озвучка: одноголоса Yuraflash (601-613, 620)
аудіо: 2.0, 192 кб/с
Зведення:LonerD

Аудіо # 10:
мова: російська
озвучка: одноголоса 4Euro (601-611)
аудіо: 2.0, 192 кб/с
Зведення:LonerD

Аудіо # 11:
мова: російська
озвучка: одноголоса Jetvis Studio - Smartt (614,616-617,619-621,623)
аудіо: 2.0, 192 кб/с
Зведення:LonerD

Аудіо # 12:
мова: російська
озвучка: одноголоса КетчупТВ (615,618,622-626)
аудіо: 2.0, 192 кб/с
Зведення:LonerD

Аудіо # 13:
мова: англійська
озвучка: оригінал
аудіо: 5.1, 640 kbps (601-613), 384 kbps (614-626)

Субтитри # 1:
мова: українська (601-613)
переклад: Hurtom
тип: програмні (м'які)
формат: *.srt

Субтитри # 2:
мова: російська
переклад: NiFiGaSeBe! (601-613), ? (614-626)
тип: програмні (м'які)
формат: *.srt

Субтитри # 3:
мова: англійська
тип: програмні (м'які)
формат: *.srt
Скріншоти:




Особиста оцінка: 10 - без зайвих вагань рекомендую всім!
Info
"1 серія"
n:\Multserial.Adult\Futurama\Futurama.Season.06\Futurama.6ACV01.Rebirth.4xUkr.6xRus.Eng..720p.
General
Unique ID : 188208988655690909573378674972408964772 (0x8D97BB9296283E45A01DBAD742B866A4)
Complete name : n:\Multserial.Adult\Futurama\Futurama.Season.06\Futurama.6ACV01.Rebirth.4xUkr.6xRus.Eng..720p.
Format :
Format version : Version 2
File size : 984 MiB
Duration : 21mn 42s
Overall bit rate : 6 335 Kbps
Movie name : Futurama - [LonerD © DreamLair.net]
Encoded date : UTC 2011-05-11 23:46:28
Writing application : v4.6.0 ('Still Crazy After All These Years') built on Mar 13 2011 18:33:29
Writing library : libebml v1.2.0 + v1.1.0
Video #1
ID : 1
Format : AVC
Format/Info : Advanced Video Codec
Format profile : [email protected]
Format settings, CABAC : Yes
Format settings, ReFrames : 9 frames
Codec ID : V_MPEG4/ISO/AVC
Duration : 21mn 42s
Bit rate : 3 200 Kbps
Width : 1 280 pixels
Height : 720 pixels
Display aspect ratio : 16:9
Frame rate : 23.976 fps
Color space : YUV
Chroma subsampling : 4:2:0
Bit depth : 8 bits
Scan type : Progressive
Bits/(Pixel*Frame) : 0.145
Stream size : 477 MiB (49%)
Title : Futurama s06s01 - Rebirth - [LonerD © DreamLair.net]
Writing library : core 112 r1867 22bfd31
Encoding settings : cabac=1 / ref=9 / deblock=1:-3:-3 / analyse=0x3:0x133 / me=tesa / subme=10 / psy=1 / psy_rd=1.10:0.05 / mixed_ref=1 / me_range=64 / chroma_me=1 / trellis=2 / 8x8dct=1 / cqm=0 / deadzone=21,11 / fast_pskip=0 / chroma_qp_offset=-3 / threads=8 / sliced_threads=0 / nr=0 / decimate=0 / interlaced=0 / constrained_intra=0 / bframes=12 / b_pyramid=2 / b_adapt=2 / b_bias=0 / direct=3 / weightb=1 / open_gop=0 / weightp=2 / keyint=250 / keyint_min=23 / scenecut=40 / intra_refresh=0 / rc=2pass / mbtree=0 / bitrate=3200 / ratetol=1.0 / qcomp=0.60 / qpmin=0 / qpmax=51 / qpstep=4 / cplxblur=20.0 / qblur=0.5 / ip_ratio=1.20 / pb_ratio=1.10 / aq=2:0.90
Language : English
Default : Yes
Forced : No
Audio #2
ID : 2
Format : AC-3
Format/Info : Audio Coding 3
Mode extension : CM (complete main)
Codec ID : A_AC3
Duration : 21mn 42s
Bit rate mode : Constant
Bit rate : 192 Kbps
Channel(s) : 2 channels
Channel positions : Front: L R
Sampling rate : 48.0 KHz
Bit depth : 16 bits
Compression mode : Lossy
Stream size : 29.8 MiB (3%)
Title : QTV
Language : Ukrainian
Default : Yes
Forced : No
Audio #3
ID : 3
Format : AC-3
Format/Info : Audio Coding 3
Mode extension : CM (complete main)
Codec ID : A_AC3
Duration : 21mn 42s
Bit rate mode : Constant
Bit rate : 384 Kbps
Channel(s) : 2 channels
Channel positions : Front: L R
Sampling rate : 48.0 KHz
Bit depth : 16 bits
Compression mode : Lossy
Delay relative to video : 1s 0ms
Stream size : 59.6 MiB (6%)
Title : ОМІКРОН
Language : Ukrainian
Default : No
Forced : No
Audio #4
ID : 4
Format : AC-3
Format/Info : Audio Coding 3
Mode extension : CM (complete main)
Codec ID : A_AC3
Duration : 21mn 42s
Bit rate mode : Constant
Bit rate : 384 Kbps
Channel(s) : 6 channels
Channel positions : Front: L C R, Side: L R, LFE
Sampling rate : 48.0 KHz
Bit depth : 16 bits
Compression mode : Lossy
Delay relative to video : 1s 0ms
Stream size : 59.6 MiB (6%)
Title : Yuraflash
Language : Ukrainian
Default : No
Forced : No
Audio #5
ID : 5
Format : AC-3
Format/Info : Audio Coding 3
Mode extension : CM (complete main)
Codec ID : A_AC3
Duration : 21mn 42s
Bit rate mode : Constant
Bit rate : 192 Kbps
Channel(s) : 2 channels
Channel positions : Front: L R
Sampling rate : 48.0 KHz
Bit depth : 16 bits
Compression mode : Lossy
Stream size : 29.8 MiB (3%)
Title : LostFilm
Language : Russian
Default : No
Forced : No
Audio #6
ID : 6
Format : AC-3
Format/Info : Audio Coding 3
Mode extension : CM (complete main)
Codec ID : A_AC3
Duration : 21mn 42s
Bit rate mode : Constant
Bit rate : 192 Kbps
Channel(s) : 2 channels
Channel positions : Front: L R
Sampling rate : 48.0 KHz
Bit depth : 16 bits
Compression mode : Lossy
Stream size : 29.8 MiB (3%)
Title : Кубик в Кубе
Language : Russian
Default : No
Forced : No
Audio #7
ID : 7
Format : AC-3
Format/Info : Audio Coding 3
Mode extension : CM (complete main)
Codec ID : A_AC3
Duration : 21mn 42s
Bit rate mode : Constant
Bit rate : 384 Kbps
Channel(s) : 6 channels
Channel positions : Front: L C R, Side: L R, LFE
Sampling rate : 48.0 KHz
Bit depth : 16 bits
Compression mode : Lossy
Stream size : 59.6 MiB (6%)
Title : VO-Production
Language : Russian
Default : No
Forced : No
Audio #8
ID : 8
Format : AC-3
Format/Info : Audio Coding 3
Mode extension : CM (complete main)
Codec ID : A_AC3
Duration : 21mn 42s
Bit rate mode : Constant
Bit rate : 192 Kbps
Channel(s) : 2 channels
Channel positions : Front: L R
Sampling rate : 48.0 KHz
Bit depth : 16 bits
Compression mode : Lossy
Stream size : 29.8 MiB (3%)
Title : 2x2
Language : Russian
Default : No
Forced : No
Audio #9
ID : 9
Format : AC-3
Format/Info : Audio Coding 3
Mode extension : CM (complete main)
Codec ID : A_AC3
Duration : 21mn 42s
Bit rate mode : Constant
Bit rate : 192 Kbps
Channel(s) : 2 channels
Channel positions : Front: L R
Sampling rate : 48.0 KHz
Bit depth : 16 bits
Compression mode : Lossy
Stream size : 29.8 MiB (3%)
Title : Yuraflash
Language : Russian
Default : No
Forced : No
Audio #10
ID : 10
Format : AC-3
Format/Info : Audio Coding 3
Mode extension : CM (complete main)
Codec ID : A_AC3
Duration : 21mn 42s
Bit rate mode : Constant
Bit rate : 192 Kbps
Channel(s) : 2 channels
Channel positions : Front: L R
Sampling rate : 48.0 KHz
Bit depth : 16 bits
Compression mode : Lossy
Stream size : 29.8 MiB (3%)
Title : Yuraflash+Yul
Language : Ukrainian
Default : No
Forced : No
Audio #11
ID : 11
Format : AC-3
Format/Info : Audio Coding 3
Mode extension : CM (complete main)
Codec ID : A_AC3
Duration : 21mn 42s
Bit rate mode : Constant
Bit rate : 192 Kbps
Channel(s) : 2 channels
Channel positions : Front: L R
Sampling rate : 48.0 KHz
Bit depth : 16 bits
Compression mode : Lossy
Stream size : 29.8 MiB (3%)
Title : 4Euro
Language : Russian
Default : No
Forced : No
Audio #12
ID : 12
Format : AC-3
Format/Info : Audio Coding 3
Mode extension : CM (complete main)
Codec ID : A_AC3
Duration : 21mn 42s
Bit rate mode : Constant
Bit rate : 640 Kbps
Channel(s) : 6 channels
Channel positions : Front: L C R, Side: L R, LFE
Sampling rate : 48.0 KHz
Bit depth : 16 bits
Compression mode : Lossy
Stream size : 99.4 MiB (10%)
Language : English
Default : No
Forced : No
Text #13
ID : 13
Format : UTF-8
Codec ID : S_TEXT/UTF8
Codec ID/Info : UTF-8 Plain Text
Title : Ukrainian, KeyBі, [Hurtom.com]
Language : Ukrainian
Default : No
Forced : No
Text #14
ID : 14
Format : UTF-8
Codec ID : S_TEXT/UTF8
Codec ID/Info : UTF-8 Plain Text
Title : Russian
Language : Russian
Default : No
Forced : No
Text #15
ID : 15
Format : UTF-8
Codec ID : S_TEXT/UTF8
Codec ID/Info : UTF-8 Plain Text
Language : English
Default : No
Forced : No
Menu
00:00:00.000 : :00:00:00.000
00:07:12.557 : :00:07:12.557
00:14:26.824 : :00:14:26.824
00:21:07.475 : :00:21:07.475
"14 серія"
n:\Multserial.Adult\Futurama\Futurama.Season.06\Futurama.6ACV14.The.Silence.of.the.Clamps.Ukr.4xRus.Eng..720p.
General
Unique ID : 186452951016049644976014645646531754605 (0x8C45883B83AF9BEFBE99189B97C7FA6D)
Complete name : n:\Multserial.Adult\Futurama\Futurama.Season.06\Futurama.6ACV14.The.Silence.of.the.Clamps.Ukr.4xRus.Eng..720p.
Format :
Format version : Version 2
File size : 743 MiB
Duration : 21mn 40s
Overall bit rate : 4 794 Kbps
Movie name : Futurama 720p - [LonerD © DreamLair.net]
Encoded date : UTC 2012-02-13 17:23:44
Writing application : v5.2.0 ('I can't explain') built on Dec 25 2011 12:15:23
Writing library : libebml v1.2.3 + v1.3.0
Video #1
ID : 1
Format : AVC
Format/Info : Advanced Video Codec
Format profile : [email protected]
Format settings, CABAC : Yes
Format settings, ReFrames : 5 frames
Codec ID : V_MPEG4/ISO/AVC
Duration : 21mn 40s
Bit rate : 2 999 Kbps
Width : 1 280 pixels
Height : 720 pixels
Display aspect ratio : 16:9
Frame rate : 23.976 fps
Color space : YUV
Chroma subsampling : 4:2:0
Bit depth : 8 bits
Scan type : Progressive
Bits/(Pixel*Frame) : 0.136
Stream size : 451 MiB (61%)
Title : Futurama s06e14 - The Silence of the Clamps - [LonerD © DreamLair.net]
Writing library : core 116 r2074 2641b9e
Encoding settings : cabac=1 / ref=5 / deblock=1:1:1 / analyse=0x3:0x133 / me=umh / subme=10 / psy=1 / psy_rd=0.40:0.00 / mixed_ref=1 / me_range=24 / chroma_me=1 / trellis=2 / 8x8dct=1 / cqm=0 / deadzone=21,11 / fast_pskip=1 / chroma_qp_offset=-2 / threads=6 / sliced_threads=0 / nr=0 / decimate=1 / interlaced=0 / bluray_compat=0 / constrained_intra=0 / bframes=10 / b_pyramid=2 / b_adapt=2 / b_bias=0 / direct=3 / weightb=1 / open_gop=0 / weightp=2 / keyint=250 / keyint_min=23 / scenecut=40 / intra_refresh=0 / rc_lookahead=60 / rc=2pass / mbtree=1 / bitrate=2999 / ratetol=1.0 / qcomp=0.60 / qpmin=0 / qpmax=69 / qpstep=4 / cplxblur=20.0 / qblur=0.5 / ip_ratio=1.40 / aq=1:0.60
Language : English
Default : Yes
Forced : No
Audio #2
ID : 2
Format : AC-3
Format/Info : Audio Coding 3
Mode extension : CM (complete main)
Codec ID : A_AC3
Duration : 21mn 40s
Bit rate mode : Constant
Bit rate : 384 Kbps
Channel(s) : 6 channels
Channel positions : Front: L C R, Side: L R, LFE
Sampling rate : 48.0 KHz
Bit depth : 16 bits
Compression mode : Lossy
Delay relative to video : 975ms
Stream size : 59.5 MiB (8%)
Title : UATEAM.TV
Language : Ukrainian
Default : Yes
Forced : No
Audio #3
ID : 3
Format : AC-3
Format/Info : Audio Coding 3
Mode extension : CM (complete main)
Codec ID : A_AC3
Duration : 21mn 40s
Bit rate mode : Constant
Bit rate : 192 Kbps
Channel(s) : 2 channels
Channel positions : Front: L R
Sampling rate : 48.0 KHz
Bit depth : 16 bits
Compression mode : Lossy
Stream size : 29.8 MiB (4%)
Title : LostFilm
Language : Russian
Default : No
Forced : No
Audio #4
ID : 4
Format : AC-3
Format/Info : Audio Coding 3
Mode extension : CM (complete main)
Codec ID : A_AC3
Duration : 21mn 40s
Bit rate mode : Constant
Bit rate : 192 Kbps
Channel(s) : 2 channels
Channel positions : Front: L R
Sampling rate : 48.0 KHz
Bit depth : 16 bits
Compression mode : Lossy
Stream size : 29.8 MiB (4%)
Title : Кубик в кубе
Language : Russian
Default : No
Forced : No
Audio #5
ID : 5
Format : AC-3
Format/Info : Audio Coding 3
Mode extension : CM (complete main)
Codec ID : A_AC3
Duration : 21mn 40s
Bit rate mode : Constant
Bit rate : 192 Kbps
Channel(s) : 2 channels
Channel positions : Front: L R
Sampling rate : 48.0 KHz
Bit depth : 16 bits
Compression mode : Lossy
Stream size : 29.8 MiB (4%)
Title : VO-Production
Language : Russian
Default : No
Forced : No
Audio #6
ID : 6
Format : AC-3
Format/Info : Audio Coding 3
Mode extension : CM (complete main)
Codec ID : A_AC3
Duration : 21mn 40s
Bit rate mode : Constant
Bit rate : 448 Kbps
Channel(s) : 6 channels
Channel positions : Front: L C R, Side: L R, LFE
Sampling rate : 48.0 KHz
Bit depth : 16 bits
Compression mode : Lossy
Delay relative to video : 975ms
Stream size : 69.4 MiB (9%)
Title : Jetvis Studio
Language : Russian
Default : No
Forced : No
Audio #7
ID : 7
Format : AC-3
Format/Info : Audio Coding 3
Mode extension : CM (complete main)
Codec ID : A_AC3
Duration : 21mn 40s
Bit rate mode : Constant
Bit rate : 384 Kbps
Channel(s) : 6 channels
Channel positions : Front: L C R, Side: L R, LFE
Sampling rate : 48.0 KHz
Bit depth : 16 bits
Compression mode : Lossy
Stream size : 59.5 MiB (8%)
Title : 5.1 384 kbps [Original]
Language : English
Default : No
Forced : No
Text #8
ID : 8
Format : UTF-8
Codec ID : S_TEXT/UTF8
Codec ID/Info : UTF-8 Plain Text
Title : RUS
Language : Russian
Default : No
Forced : No
Text #9
ID : 9
Format : UTF-8
Codec ID : S_TEXT/UTF8
Codec ID/Info : UTF-8 Plain Text
Title : ENG
Language : English
Default : No
Forced : No


 Трекер:    Зареєстрований   

Завантажити / скачати мультфільм українською



відео для новачків



 Зареєстрований:   2012-02-14 05:12
 Розмір:   19.72 GB 
 Оцінка мультсеріалу:   9.3/10 (Голосів: 78)
   
LonerD 
Свій


З нами з: 02.06.10
Востаннє: 14.03.21
Повідомлень: 92

2010-10-02 14:49  
Перший реліз на гуртом.
Усі існуючі доступні озвучки шостого сезону Футурами - дві українські, п'ять російських та оригінал.
Якість відео - найкраща на цей час.

Andick 
Модератор відео та координатор поширення


З нами з: 03.11.09
Востаннє: 11.04.21
Повідомлень: 1499

2010-10-02 14:54  
а чому цю озвучку не додали https://toloka.to/t15598 ?
LonerD 
Свій


З нами з: 02.06.10
Востаннє: 14.03.21
Повідомлень: 92

2010-10-02 14:57  
Якщо подібні релізи актуальні, то прошу звернути увагу на ось це повідомлення:
https://toloka.to/p222838#222838
Якщо хтось допоможе з оформленням - то будуть усі сезони South Park

Додано через 1 хвилину 39 секунд:

Andick написано:
а чому цю озвучку не додали

Як з'явиться можливість - додам обов'язково.
Seeder yuraflash last seen: 2010-08-28
Звертався до yuraflash, але він зараз не може роздати.
Якщо у когось є аудіодоріжки з того релізу - прохання поділитись.

Andick 
Модератор відео та координатор поширення


З нами з: 03.11.09
Востаннє: 11.04.21
Повідомлень: 1499

2010-10-02 15:03  
Натисніть там "Детальний список" і побачите зверху список людей які завантажили даний реліз, а саме
Цитата:
Завантажили
andriy155155, vodomanuch2505, abmudr, flud88, Little, abodnya, richman
Звертайтесь до них
fl_fl 
Відео Гуртом - фільмокрай
Відео Гуртом - фільмокрай


З нами з: 26.05.09
Востаннє: 12.04.21
Повідомлень: 3381

2010-10-02 15:22  
та я дам окремо стрими
ua2004 
Відео Гуртом - фільмокрай
Відео Гуртом - фільмокрай


З нами з: 31.01.08
Востаннє: 11.04.21
Повідомлень: 3207

2010-10-02 15:25  
На фіг рос. озвучки? Що їх нема де більше скачати? Тут поширюємо лише українське.
abodnya 
Відео Гуртом - фільмокрай
Відео Гуртом - фільмокрай


З нами з: 02.11.08
Востаннє: 05.04.21
Повідомлень: 5934

2010-10-02 15:52  
Для порівняння перекладу
LonerD 
Свій


З нами з: 02.06.10
Востаннє: 14.03.21
Повідомлень: 92

2010-10-02 16:01  
ua2004
ВСІ вітчизняні озвучки. Це "колекційна" роздача. Роздач де одна-дві дорожки вдосталь на просторі інтернету, а всі разом - ще "нема де більше скачати".
Я не є українофілоб або росіянофобом. Будь який розумово нормальний українець розуміє російську, а росіянин - українську (адже ми не на шовіністичному рутрекері). Тому обидві мови вважаю "вітчизняними", і я не роблю між ними різниці.
До того ж українські озвучки тут йдуть першими (виключно через те, що я вважаю їх найбільш вдалими в порівнянні з російськими).

Konfucius 
Управління
Управління


З нами з: 30.09.07
Востаннє: 07.04.21
Повідомлень: 5221

2010-10-02 17:04  
LonerD написано:
Це "колекційна" роздача.

Це точно... Цікаво, доріжки в підписані?

dr_stas 
Відео Гуртом - дизайнер
Відео Гуртом - дизайнер


З нами з: 21.07.09
Востаннє: 10.04.21
Повідомлень: 463

2010-10-02 17:21  
Я розумію ідею автора, але вважаю що з рос. мовами не повинно бути на цьому сайті, тим паче з 5ма.
Можеш викладами на інших сайтах, але прошу тебе - НЕ ТУТ.

fl_fl 
Відео Гуртом - фільмокрай
Відео Гуртом - фільмокрай


З нами з: 26.05.09
Востаннє: 12.04.21
Повідомлень: 3381

2010-10-02 17:47  
dr_stas
А що станеться такого поганого? Чомусь на рутрекері не видаляють укр. доріжки з деяких фільмів.

LonerD 
Свій


З нами з: 02.06.10
Востаннє: 14.03.21
Повідомлень: 92

2010-10-02 20:00  
Konfucius написано:
Цікаво, доріжки в підписані

Підписані, звичайно.

dr_stas написано:
що з рос. мовами не повинно бути на цьому сайті

І на гуртом вистачає з рос.доріжками.
Взагалі - мені байдуже де роздавати, підборку роблю для себе.
Зрозуміло, наступного разу по перше пораджусь з модераторами.
А зараз нехай вирішують модери - якщо неподрібно таке трекеру, то видалять.

Ermolenko 
VIP


З нами з: 19.09.09
Востаннє: 29.11.20
Повідомлень: 739

2010-10-02 20:12  
Цитата:
Завантажуючі: немає

Оце правильно...)

Mirqn 
Відео Гуртом - координатор озвучення


З нами з: 17.06.09
Востаннє: 27.07.15
Повідомлень: 2457

2010-10-09 15:12  
А на рутрекері могли б зробити такий реліз чи на кінозалі?
Demmitry 
Новенький


З нами з: 07.09.10
Востаннє: 10.02.11
Повідомлень: 1

2010-11-27 19:59  
шукав саме таку підборку з багатьма доріжками для своєї колекції, і ось вона тут...автору велике дякую!!! чекаю на продовження! Rolleyes (4)
bot 
робот


З нами з: 30.09.07
Востаннє: 26.05.05
Повідомлень: 27854

2011-01-21 19:50  
Тему перенесено з Мультсеріали до форуму Мультсеріали в HD


Andick

LonerD 
Свій


З нами з: 02.06.10
Востаннє: 14.03.21
Повідомлень: 92

2011-04-20 21:03  
Десь через тиждень буде фінальне оновлення роздачі.
Буде додано 13 серію, а також ще дві озвучки.

abodnya 
Відео Гуртом - фільмокрай
Відео Гуртом - фільмокрай


З нами з: 02.11.08
Востаннє: 05.04.21
Повідомлень: 5934

2011-04-20 21:08  
а якщо по куйтб 6й сезон покажуть? Зараз повнометражки показують
fl_fl 
Відео Гуртом - фільмокрай
Відео Гуртом - фільмокрай


З нами з: 26.05.09
Востаннє: 12.04.21
Повідомлень: 3381

2011-04-20 23:59  
abodnya
покажуть

LonerD 
Свій


З нами з: 02.06.10
Востаннє: 14.03.21
Повідомлень: 92

2011-04-29 23:40  
Роздачу оновлено. Заміна ріпу на 720p. Додано останню на цей час 13 серію. Додано українську озвучку Yuraflash+Yul та російську 2х2.
Якщо покажуть по куйтб - тим краще. Буде одинадцята звукова доріжка.
Вже є офіційна інформація про трансляцію шостого сезону?

fl_fl 
Відео Гуртом - фільмокрай
Відео Гуртом - фільмокрай


З нами з: 26.05.09
Востаннє: 12.04.21
Повідомлень: 3381

2011-04-30 00:24  
LonerD написано:
Вже є офіційна інформація про трансляцію шостого сезону?

Вже показали 1-2 серії точно.

LonerD 
Свій


З нами з: 02.06.10
Востаннє: 14.03.21
Повідомлень: 92

2011-04-30 12:51  
yuraflash написано:
Вже показали 1-2 серії точно.

Тю. На трекері ще не виклали, а коменти недочитав.

4erkov 
Відео Гуртом - запис з ТБ
Відео Гуртом - запис з ТБ


З нами з: 09.10.10
Востаннє: 08.04.21
Повідомлень: 1840

2011-05-03 22:06  
Цитата:
Тю. На трекері ще не виклали, а коменти недочитав.

Вже є) Якщо потрібні окремо доріжки - можу надати. Happy

LonerD 
Свій


З нами з: 02.06.10
Востаннє: 14.03.21
Повідомлень: 92

2011-05-24 13:05  
4erkov
Дякую за доріжки, вже скачав з аві-роздачі.

Роздачу оновлено, додано озвучку QTV.

urij546724 
Відео Гуртом - фільмокрай
Відео Гуртом - фільмокрай


З нами з: 16.03.10
Востаннє: 11.04.21
Повідомлень: 5783

2011-05-28 14:17  
LonerD написано:
FPS: 23.976 fps

Трохи неправильно. Краще напиши Частота кадрів: 23.976 fps, бо зараз виходить приблизно таке:
Кілограми: 2 кілограми. Wink (2)

LonerD написано:
Режисер: Matt Groening

режисера продублюй українською і допиши кілька акторів з оригінальної озвучки.

LonerD написано:
бітрейт: 48 KHz, 192 kbps

Ну це теж розділи, бо 48 KHz немає відношення до бітрейту.
LonerD написано:
Субтитри

допиши їх у назву.
І ще:
LonerD написано:
4хUKR/6хRUS/ENG

LonerD написано:
3хUKR/6хRUS/ENG

lpershyi 
Попереджень: 2
Попереджень: 2 


З нами з: 04.01.11
Востаннє: 04.04.21
Повідомлень: 2880

2011-08-05 19:09  
Цитата:
Аудіо # 4:
мова: російська
Зауваження
це ж пропаганда всього російського. Прошу не вбивати українське!

abodnya 
Відео Гуртом - фільмокрай
Відео Гуртом - фільмокрай


З нами з: 02.11.08
Востаннє: 05.04.21
Повідомлень: 5934

2011-08-05 23:12  
lpershyi
LonerD написано:

Аудіо # 11:
мова: англійська
переклад: оригінал
кодек: 5.1
бітрейт: 640 kbps

це пропаганда всього англійського! Не треба вбивати українське!

Люди, вам ще не набридло писати геть неадекватні речі?

lpershyi 
Попереджень: 2
Попереджень: 2 


З нами з: 04.01.11
Востаннє: 04.04.21
Повідомлень: 2880

2011-08-13 23:00  
зауваження 2
Abdonya написав
Цитата:
Люди, вам ще не набридло писати геть неадекватні речі?

Lpershyi відпівів
поки існуватимуть неадекватні релізи - існуватимуть претензії такого роду
P.S.
Abdonya написав
Цитата:
це пропаганда всього англійського! Не треба вбивати українське!
Lpershyi відпівів
це не арґумент, бо мова оригіналу англійська а аж ніяк якась там російська
P.S.S.
і взагалі англійська мова в Україні насильно не звучить по ТВ, РАДІО, ПРЕСІ тощо. Навпаки насильна русифікація, приниження й викорінення всього українського триває! Люди не будьте байдужі.

abodnya 
Відео Гуртом - фільмокрай
Відео Гуртом - фільмокрай


З нами з: 02.11.08
Востаннє: 05.04.21
Повідомлень: 5934

2011-08-14 00:55  
lpershyi написано:
поки існуватимуть неадекватні релізи - існуватимуть претензії такого роду

Ти розумієш таке слово "Коллекція" чи наприклад слова "порівняння перекладу", "повнота релізу", ні?

Ваш часовий пояс: GMT + 2 Години

Нова тема   Відповісти Сторінка:  1, 2  наступна