Dunaewsky69 - Xquisite. Xcerpt. (2007) [FLAC] | IDM / Techno

Нові коментарі

Нова тема   Відповісти
Останній раз роздавалося semenovskyj (2012-03-20)
Автор Повідомлення
Lev 
VIP


З нами з: 14.10.09
Востаннє: 19.08.17
Повідомлень: 1819

2010-08-28 08:20  
Dunaewsky69 - Xquisite. Xcerpt. (2007) [FLAC] | IDM / Techno



Стиль: IDM / Techno
Країна, місто: Україна, Київ
Сайти: Офіційний сайт

Видавець: Kvitnu
Виконавці:
Олександр Гладун (Dunaewsky69) - вся музика
Пісні:
    01. Flyings In Slumber (06:57)
    02. Touch To Unattached (03:26)
    03. Li. Exquisite. Excerpt. (06:15)
    04. Does Somebody Live Inside Me? (05:31)
    05. Dancing Glare Is Visual Surrounding (06:26)
    06. One Worlds History (09:39)
    07. The Way To The Sun (07:33)
    08. Mishush (06:14)
    09. The Opening Of Infinity (05:21)
    10. The Children Of Underground, Inhalation, Exhalation (08:14)
    11. Roman Kosh (06:29)
    12. Liya (05:54)
    log
    Exact Audio Copy V0.99 prebeta 3 from 28. July 2007

    EAC extraction logfile from 9. October 2008, 0:07

    Dunaewsky69 / Xquisite. Xcerpt.

    Used drive : HP DVD Writer 940d Adapter: 4 ID: 0

    Read mode : Secure
    Utilize accurate stream : Yes
    Defeat audio cache : Yes
    Make use of C2 pointers : No

    Read offset correction : 6
    Overread into Lead-In and Lead-Out : No
    Fill up missing offset samples with silence : Yes
    Delete leading and trailing silent blocks : No
    Null samples used in CRC calculations : Yes
    Used interface : Installed external ASPI interface

    Used output format : User Defined Encoder
    Selected bitrate : 320 kBit/s
    Quality : High
    Add ID3 tag : No
    Command line compressor : C:\Program Files\Exact Audio Copy\Flac\flac.exe
    Additional command line options : --fast -T "ARTIST=%a" -T "TITLE=%t" -T "ALBUM=%g" -T "DATE=%y" -T "TRACKNUMBER=%n" -T "GENRE=%m" %s

    TOC of the extracted CD

    Track | Start | Length | Start sector | End sector
    ---------------------------------------------------------
    1 | 0:00.00 | 6:59.21 | 0 | 31445
    2 | 6:59.21 | 3:27.61 | 31446 | 47031
    3 | 10:27.07 | 6:17.35 | 47032 | 75341
    4 | 16:44.42 | 5:32.46 | 75342 | 100287
    5 | 22:17.13 | 6:27.49 | 100288 | 129361
    6 | 28:44.62 | 9:40.67 | 129362 | 172928
    7 | 38:25.54 | 7:34.74 | 172929 | 207052
    8 | 46:00.53 | 6:15.55 | 207053 | 235232
    9 | 52:16.33 | 5:22.61 | 235233 | 259443
    10 | 57:39.19 | 8:15.69 | 259444 | 296637
    11 | 65:55.13 | 6:31.31 | 296638 | 325993
    12 | 72:26.44 | 5:53.71 | 325994 | 352539

    Range status and errors

    Selected range

    Filename F:\__EAC_Released\Dunaewsky69 - Xquisite. Xcerpt..wav

    Peak level 100.0 %
    Range quality 100.0 %
    Test CRC 85E5B38B
    Copy CRC 85E5B38B
    Copy OK

    No errors occurred

    AccurateRip summary

    Track 1 not present in database
    Track 2 not present in database
    Track 3 not present in database
    Track 4 not present in database
    Track 5 not present in database
    Track 6 not present in database
    Track 7 not present in database
    Track 8 not present in database
    Track 9 not present in database
    Track 10 not present in database
    Track 11 not present in database
    Track 12 not present in database

    None of the tracks are present in the AccurateRip database

    End of status report

Тривалість: 01:18:14
Мова: нема
Аудіо-кодек: FLAC
Бітрейт: 750-1155 кб/с, 16 bit / 44100 Hz
Джерело: CD-ріп -> інший торрент-трекер

+ роздача містить якісні скани обкладинок



Також на Торрент-Толоці Гуртом ви можете знайти :

Dunaewsky69 - Contiguity (2004) [FLAC]

Dunaewsky69 - Detimorya (2010) [MP3]

Dunaewsky69 - Odessa Sea (2011) [MP3]


Якщо Ви справді бажаєте підтримати українське - після прослуховування, якщо музика вам сподобалась, придбайте ліцензійний диск. Підтримаймо вітчизняних виконавців!


Срібний реліз (на рейтинг впливає 50% завантаженого)
 Трекер:    Зареєстрований   

Завантажити / скачати українську музику



відео для новачків



 Зареєстрований:   2010-08-28 08:20
 Розмір:   574 MB 
 Оцінка музики:   10/10 (Голосів: 3)
   
mishana97 
Поважний учасник


З нами з: 25.04.09
Востаннє: 30.11.14
Повідомлень: 221

2010-11-29 17:28  
це що таке?
Lev 
VIP


З нами з: 14.10.09
Востаннє: 19.08.17
Повідомлень: 1819

2010-11-30 11:19  
mishana97 написано:
це що таке?


як шо - музика Happy)))
не будь чудним Happy

Ваш часовий пояс: GMT + 2 Години

Нова тема   Відповісти