Zavoloka & AGF - Nature Never Produces The Same Beat Twice (2006) [FLAC] | Glitch / Abstract / Experimental

Нові коментарі

Нова тема   Відповісти
Останній раз роздавалося semenovskyj (2012-03-20)
Автор Повідомлення
Lev 
VIP


З нами з: 14.10.09
Востаннє: 16.08.17
Повідомлень: 1819

2010-08-12 14:02  
Zavoloka & AGF - Nature Never Produces The Same Beat Twice (2006) [FLAC] | Glitch / Abstract / Experimental



Стиль: Glitch / Abstract / Experimental
Країна, місто: Україна, Київ
Сайти: Офіційний сайт

Видавець: Nexsound
Виконавці:
Катерина Заволока та Antye Greie-Fuchs - музика й концепція, голоси
Катерина Заволока - продюсування
Nitka (Наталя Жижченко) - сопліка (5)

Мастеринг - "The White Room" Vladislav Delay's studio.
Пісні:
трекліст
    Meadow

    01. Rozmai (01:04)
    02. Sunytsia (01:08)
    03. Air (01:09)
    04. Do Divchyny (01:10)
    05. Nude Brain (01:13 )
    06. Mynalisovogo (01:16)
    07. Tapfermohn (01:04)
    08. Mak (01:06)
    09. Zelena (01:11)
    10. Korin (01:48 )
    11. Schafgabe (01:09)
    12. Distel (01:05)
    13. Ordinary Grass (01:08)
    14. Lionteeth (01:09)
    15. Unkraut (01:04)

    Trees

    16. V Lisi (01:01)
    17. Brusnitsia (01:14)
    18. Lyshchyna (01:04)
    19. Zhuravlyna (01:01)
    20. Kashtan (01:06)
    21. Sosna (01:02)
    22. Kljon (01:04)
    23. Bereza (01:08)
    24. Blattlaus (01:22)
    25. Zeder Vodorosti (01:26)
    26. Oldtalkintrees (01:10)
    27. Dubeiche (01:04)
    28. Linde (01:03 )
    29. Bee In The Tree (01:04)
    30. Vogelbeere (01:26)
    31. Affenbrotbaum (01:04)
    32. Kiefer (01:05)
    33. Vyshnja (01:05)

    Spices

    34. Kohaju (01:03)
    35. Raps (01:05)
    36. Melissa (01:07)
    37. Minze (01:03)
    38. Mavka (01:07)
    39. Koriander (01:04)
    40. Bohnenkraut (01:06)

    Bushes

    41. Efeu (01:08)
    42. Wein (01:11)
    43. Nude Brainnita II (01:15)
    44. Minikaktus (01:06)
    45. Star (01:02)
    46. Kust (01:02)
    47. Haselnuss (01:07)

    Flowers

    48. Konvalija (01:04()
    49. Lynmovgory (01:02)
    50. Darkflowerbrainnita (01:05)
Тривалість: 00:57:13
Мова: без слів
Аудіо-кодек: FLAC
Бітрейт: 533-1083 кб/с, 16 bit / 44100 Hz
Джерело: CD-ріп -> інший торрент-трекер
Додаткова інформація:
звіт EAC
Exact Audio Copy V0.99 prebeta 4 from 23. January 2008

Отчёт EAC об извлечении, выполненном 18. ноября 2008, 20:52

Zavoloka & Agf / Nature Never Produces The Same Beat Twice

Дисковод: ASUS DRW-1608P3S Adapter: 1 ID: 0

Режим чтения : Достоверность
Использование точного потока : Да
Отключение кэша аудио : Да
Использование указателей C2 : Нет

Коррекция смещения при чтении : 48
Способность читать области Lead-in и Lead-out : Нет
Заполнение пропущенных сэмплов тишиной : Да
Удаление блоков с тишиной в начале и конце : Нет
При вычислениях CRC использовались нулевые сэмплы : Да
Интерфейс : Встроенный Win32-интерфейс для Win NT/2000

Выходной формат : Пользовательский кодировщик
Выбранный битрейт : 1024 kBit/s
Качество : Высокий
Добавление ID3-тэга : Нет
Утилита сжатия : C:\Program Files\Exact Audio Copy\FLAC\FLAC.EXE
Дополнительные параметры : -8 -V -T "ARTIST=%a" -T "TITLE=%t" -T "ALBUM=%g" -T "DATE=%y" -T "TRACKNUMBER=%n" -T "GENRE=%m" -T "COMMENT=EAC FLAC -8" %s

TOC извлечённого CD

Трек | Старт | Длительность | Начальный сектор | Конечный сектор
---------------------------------------------------------------------
1 | 0:00.00 | 1:04.45 | 0 | 4844
2 | 1:04.45 | 1:08.26 | 4845 | 9970
3 | 2:12.71 | 1:09.03 | 9971 | 15148
4 | 3:21.74 | 1:10.32 | 15149 | 20430
5 | 4:32.31 | 1:13.28 | 20431 | 25933
6 | 5:45.59 | 1:16.57 | 25934 | 31690
7 | 7:02.41 | 1:04.37 | 31691 | 36527
8 | 8:07.03 | 1:06.39 | 36528 | 41516
9 | 9:13.42 | 1:11.70 | 41517 | 46911
10 | 10:25.37 | 1:48.00 | 46912 | 55011
11 | 12:13.37 | 1:09.12 | 55012 | 60198
12 | 13:22.49 | 1:05.02 | 60199 | 65075
13 | 14:27.51 | 1:08.03 | 65076 | 70178
14 | 15:35.54 | 1:09.73 | 70179 | 75426
15 | 16:45.52 | 1:04.73 | 75427 | 80299
16 | 17:50.50 | 1:01.69 | 80300 | 84943
17 | 18:52.44 | 1:14.15 | 84944 | 90508
18 | 20:06.59 | 1:04.58 | 90509 | 95366
19 | 21:11.42 | 1:01.40 | 95367 | 99981
20 | 22:13.07 | 1:06.25 | 99982 | 104956
21 | 23:19.32 | 1:02.42 | 104957 | 109648
22 | 24:21.74 | 1:04.50 | 109649 | 114498
23 | 25:26.49 | 1:08.69 | 114499 | 119667
24 | 26:35.43 | 1:22.08 | 119668 | 125825
25 | 27:57.51 | 1:26.71 | 125826 | 132346
26 | 29:24.47 | 1:10.18 | 132347 | 137614
27 | 30:34.65 | 1:04.47 | 137615 | 142461
28 | 31:39.37 | 1:03.54 | 142462 | 147240
29 | 32:43.16 | 1:04.34 | 147241 | 152074
30 | 33:47.50 | 1:26.37 | 152075 | 158561
31 | 35:14.12 | 1:04.18 | 158562 | 163379
32 | 36:18.30 | 1:05.57 | 163380 | 168311
33 | 37:24.12 | 1:05.33 | 168312 | 173219
34 | 38:29.45 | 1:03.35 | 173220 | 177979
35 | 39:33.05 | 1:05.50 | 177980 | 182904
36 | 40:38.55 | 1:07.09 | 182905 | 187938
37 | 41:45.64 | 1:03.03 | 187939 | 192666
38 | 42:48.67 | 1:07.17 | 192667 | 197708
39 | 43:56.09 | 1:04.48 | 197709 | 202556
40 | 45:00.57 | 1:06.41 | 202557 | 207547
41 | 46:07.23 | 1:08.09 | 207548 | 212656
42 | 47:15.32 | 1:11.23 | 212657 | 218004
43 | 48:26.55 | 1:15.65 | 218005 | 223694
44 | 49:42.45 | 1:06.28 | 223695 | 228672
45 | 50:48.73 | 1:02.15 | 228673 | 233337
46 | 51:51.13 | 1:02.14 | 233338 | 238001
47 | 52:53.27 | 1:07.66 | 238002 | 243092
48 | 54:01.18 | 1:04.10 | 243093 | 247902
49 | 55:05.28 | 1:02.29 | 247903 | 252581
50 | 56:07.57 | 1:05.01 | 252582 | 257457

Характеристики диапазона извлечения и сообщения об ошибках

Выбранный диапазон

Имя файла D:\Zavoloka & AGF -\Zavoloka & Agf - Nature Never Produces The Same Beat Twice.wav

Пиковый уровень 100.0 %
Качество диапазона 100.0 %
CRC теста 4DDF4060
CRC копии 4DDF4060
Копирование... OK

Ошибок не произошло

Конец отчёта
Zavoloka (Катерина Заволока) — музикантка і дизайнерка з Києва, яскрава зірка лейблів експериментальної музики Nexsound та KVITNU.
Катерина встигла зробити ремікси на пісні деяких українських музикантів, взяти участь у різних збірках електронної музики, випустити кілька яскравих альбомів в Україні та за кордоном, взяти участь у багатьох фестивалях експериментальної музики Європи та України.

Німецька поетка, вокалістка, музикант та продюсерка Antye Greie-Fuchs (aka AGF) познайомилась із Катериною Заволокою 2003 року, прослухавши її треки в інтернеті. Невдовзі вони вирішили співпрацювати.

Альбом-колаборацію записано на Innertion Studio (Київ).
Дата релізу - 28 січня 2006 року.
інформація про Zavoloka з сайту umka.com.ua
Для конструювання своєї музики Катерина Заволока використовує FM та гранулярний синтез, все ліпиться з віртуальних синтезаторів та всіляких плагінів. Свій перший повноцінний альбом "Суспензія" писала на дуже старому комп'ютері: "деякі програми взагалі не ставилися". Катя дуже полюбляє україський ліс, баламута Squarepusher'а і каталонського архітектора Франциско Гауді.

Катя - надзвичайний талант! В її музиці практично повністю відсутні петлі, часто в межах композиції взагалі немає навіть пари хоч трохи схожих звуків (копаючись у секвенсорах, буває важко відмовитись від використання придуманих раніше звучків). Иноді Катя пише чужий вокал і коротенькі партії живих інструментів на студії Innertion у друга. Катя говорить, що чужа творчість стимулює власні думки. Потім ці записані голоси з'являються в музиці неочікувано і звучать дуже цікаво. Палкий дитячий голосок під контролем чудернацьких фільтрів, протяжне жіноче волання, що зізнається у любові до України, захмарна пісня українського діда. Голоси з'являються, і їхня взаємодія з музикою дуже незвична і незвичайна - не скажеш, що "голоси з'являються, органічно вписавшись" - музика Каті взагалі неорганічна. І в цьому її головна перевага: бути надзвичайно цікавою, залишаючись неорганічною, неорганізованою, некрасивою і непослідовною. Музика Каті абсолютно непередбачувана, неосяжні структури її композицій і майже стовідсоткова неповторюваність аудіо-колажів ніяк не в'яжуться з її мініатюрною фігуркою та особистими музичними вподобаннями. Словом, ми маємо справу з талановитим, різнобічним та працелюбним музикантом.

В 2006 лейбл Nexsound видав спільну роботу Zavoloka з берлинською поеткою AGF (Antye Greie-Fuchs).

На запитання про те, як у неї виходить будувати настільки неповторні звукові ландшафти, Катя відповіла дуже просто: "Різноманітність мені просто цікаво слухати - така музика не може бути фоновою... а техно розкладає свідомість".
Роздача містить повний комплект сканів!




Якщо Ви справді бажаєте підтримати українське - після прослуховування, якщо музика вам сподобалась, придбайте ліцензійний диск.
Підтримаймо вітчизняних виконавців!


Срібний реліз (на рейтинг впливає 50% завантаженого)
 Трекер:    Зареєстрований   

Завантажити / скачати українську музику



відео для новачків



 Зареєстрований:   2010-08-12 14:02
 Розмір:   335 MB 
 Оцінка музики:   10/10 (Голосів: 6)
   
gosha.samovar 
VIP


З нами з: 08.09.10
Востаннє: 15.08.17
Повідомлень: 415

2012-02-02 00:20  
Роздайте, будь ласка, хочеться зацінити.
Lev 
VIP


З нами з: 14.10.09
Востаннє: 16.08.17
Повідомлень: 1819

2012-02-03 14:27  
gosha.samovar

Роздаю зараз цей реліз лише в мп3 у складі дискографії - критично бракувало місця на харді, я тимчасово залив диск на megaupload, ну а далі всі знають шо відбулося. З невеликим хардом я не можу вічно підтримувати абсолютно всі створені роздачі. Це не було б проблемою, якби на Гуртом не тільки качали, а й залишались на роздачі.

Але на рутрекері лось має лежати.

ssTAss 
Модератор музики


З нами з: 05.07.08
Востаннє: 18.08.17
Повідомлень: 11766

2012-02-03 19:33  
Lev написано:
Але на рутрекері лось має лежати.

я б тут приєднався до роздачі, але Ви порізали образ
gosha.samovar'е, якщо ще треба, то скину в ПП.... кажіть

gosha.samovar 
VIP


З нами з: 08.09.10
Востаннє: 15.08.17
Повідомлень: 415

2012-02-03 22:36  
Дякую, ssTAss, я вже хоботнув у іншому місці.
Ваш часовий пояс: GMT + 2 Години

Нова тема   Відповісти