Мері і Макс / Mary and Max (2009) 1080p Ukr/Eng | Sub Ukr/Eng

Нові коментарі

Нова тема   Відповісти
Автор Повідомлення
SainTManiac 
VIP


З нами з: 17.09.09
Востаннє: 21.08.17
Повідомлень: 425

2010-06-21 18:57  
Мері і Макс / Mary and Max (2009) 1080p Ukr/Eng | Sub Ukr/Eng



Жанр: анімація, комедія, драма / animation, comedy, drama

Країна: Австралія / Australia



Кіностудія / кінокомпанія: Melodrama Pictures

Режисер та автор сценарію: Адам Елліот (Adam Elliot)

Персонажів озвучували:

Офіційний сайт: www.maryandmax.com

Офіційний трейлер: на
-= YouTube =-



Сюжет:
Ця анімаційна стрічка - розповідь про двох абсолютно різних людей, які стали друзями, хоч ніколи не бачили одне одного, друзями по листуванню. У восьмирічної дівчинки, яка живе в передмісті Мельбурна, та Макса Горовіца, сорокачотирилітного єврея з Нью-Йорку, який страждає на синдром Аспергера та ожиріння спільне лише одне - самотність. Саме тому їхня переписка так важлива для них, попри велетенську різницю у віці та не менш велику відстань між двома континентами. За допомогою цих персонажів автори стрічки досліджують проблеми аутизму, алкоголізму клептоманії, статевих та релігійних відмінностей, довіри, агорафобії та багато чого іншого.



Тривалість: 01:32:15

Якість:

Відео:
кодек: MPEG-4 AVC /
розмір кадру: 1920 х 1056
бітрейт: ~7779 кб/с

Аудіо # 1:
мова: українська (для тих, хто вже завантажив доріжка на: FileShare.in.ua)
переклад: багатоголосий закадровий
кодек: АС3 5.1
бітрейт: 640 кб/с

Аудіо # 2:
мова: англійська
переклад: оригінал
кодек: 5.1
бітрейт: 1536 кб/с

Переклад і озвучення виконано:


Субтитри:
мова: українська, англійська
тип: програмні (м'які)
формат: *.srt


Info:
-=+++=-
Код:
General
Unique ID                        : 228251984880508060688500831710304052470 (0xABB7BBB694CF11A99F9AEF587F2CA4F6)
Complete name                    : E:\- MOVIES -\Mary and Max (2009) 1080p [Ukr, Eng] [Hurtom & UA Team] by SainTManiac.
Format                           :
File size                        : 6.40 GiB
Duration                         : 1h 32mn
Overall bit rate                 : 9 916 Kbps
Movie name                       : Mary and Max [Мері і Макс] (2009) 1080p [Hurtom & UA Team] by SainTManiac
Encoded date                     : UTC 2011-03-12 14:48:22
Writing application              : mkvmerge v4.4.0 ('Die Wiederkehr') зібрано Oct 31 2010 21:52:48
Writing library                  : libebml v1.0.0 + libmatroska v1.0.0

Video
ID                               : 1
Format                           : AVC
Format/Info                      : Advanced Video Codec
Format profile                   : [email protected]
Format settings, CABAC           : Yes
Format settings, ReFrames        : 5 frames
Muxing mode                      : Header stripping
Codec ID                         : V_MPEG4/ISO/AVC
Duration                         : 1h 32mn
Bit rate                         : 7 779 Kbps
Width                            : 1 920 pixels
Height                           : 1 056 pixels
Display aspect ratio             : 16:9
Frame rate                       : 23.976 fps
Color space                      : YUV
Chroma subsampling               : 4:2:0
Bit depth                        : 8 bits
Scan type                        : Progressive
Bits/(Pixel*Frame)               : 0.160
Stream size                      : 4.88 GiB (76%)
Title                            : Mary and Max (2009) 1080p by SainTManiac
Writing library                  : core 80 r1376M 3feaec2
Encoding settings                : cabac=1 / ref=5 / deblock=1:-3:-3 / analyse=0x3:0x113 / me=esa / subme=9 / psy=1 / psy_rd=1.0:0.2 / mixed_ref=1 / me_range=32 / chroma_me=1 / trellis=2 / 8x8dct=1 / cqm=0 / deadzone=21,11 / fast_pskip=0 / chroma_qp_offset=-3 / threads=6 / sliced_threads=0 / nr=0 / decimate=1 / mbaff=0 / constrained_intra=0 / bframes=3 / b_pyramid=2 / b_adapt=2 / b_bias=0 / direct=2 / wpredb=1 / wpredp=2 / keyint=250 / keyint_min=25 / scenecut=40 / rc_lookahead=64 / rc=2pass / mbtree=1 / bitrate=7779 / ratetol=0.7 / qcomp=0.60 / qpmin=10 / qpmax=51 / qpstep=4 / cplxblur=20.0 / qblur=0.5 / ip_ratio=1.40 / aq=1:1.00
Language                         : English

Audio #1
ID                               : 2
Format                           : AC-3
Format/Info                      : Audio Coding 3
Mode extension                   : CM (complete main)
Muxing mode                      : Header stripping
Codec ID                         : A_AC3
Duration                         : 1h 32mn
Bit rate mode                    : Constant
Bit rate                         : 640 Kbps
Channel(s)                       : 6 channels
Channel positions                : Front: L C R, Side: L R, LFE
Sampling rate                    : 48.0 KHz
Bit depth                        : 16 bits
Compression mode                 : Lossy
Stream size                      : 423 MiB (6%)
Title                            : Багатоголосий закадровий @ UA Team | 5.1 @ 640 kbps
Language                         : Ukrainian

Audio #2
ID                               : 3
Format                           :
Format/Info                      : Digital Theater Systems
Muxing mode                      : Header stripping
Codec ID                         : A_DTS
Duration                         : 1h 32mn
Bit rate mode                    : Constant
Bit rate                         : 1 510 Kbps
Channel(s)                       : 6 channels
Channel positions                : Front: L C R, Side: L R, LFE
Sampling rate                    : 48.0 KHz
Bit depth                        : 24 bits
Compression mode                 : Lossy
Stream size                      : 998 MiB (15%)
Title                            : Original | 5.1 @ 1536 kbps
Language                         : English

Text #1
ID                               : 4
Format                           : UTF-8
Codec ID                         : S_TEXT/UTF8
Codec ID/Info                    : UTF-8 Plain Text
Language                         : Ukrainian

Text #2
ID                               : 5
Format                           : UTF-8
Codec ID                         : S_TEXT/UTF8
Codec ID/Info                    : UTF-8 Plain Text
Language                         : English



Скріншоти:
-=+++=-


Семпл: на FileShare.in.ua (~154 МБ)


Джерело:
&

Особиста оцінка: 10 - як на мене, то просто суперовий мультфільм!!! Рекомендую до перегляду!
Велике спасибі за постер Ermolenko


Золотий реліз (завантажене не впливає на рейтинг)
 Трекер:    Зареєстрований   

Завантажити / скачати мультфільм українською



відео для новачків



 Зареєстрований:   2011-03-12 19:22
 Розмір:   6.4 GB 
 Оцінка мультфільму:   7.8/10 (Голосів: 15)
   
Інші релізи
   Мері та Макс / Мері і Макс / Mary and Max (2009) 2xUkr/Eng | Sub Ukr/Eng karvai0  3 / 2   1.7 GB   2013-11-29 03:04 
   Мері та Макс / Mary and Max (2009) 720р-mini Ukr/Eng Mirqn  0 / 0   2.45 GB   2011-03-10 00:35 
   Мері та Макс / Mary and Max (2009) Mirqn  4 / 0   694 MB   2011-03-10 00:26 
weber 
Почесний гуртомівець


З нами з: 03.08.08
Востаннє: 31.07.17
Повідомлень: 7001

2010-06-21 20:44  
SainTManiac, підписую просто Hurtom.
SainTManiac 
VIP


З нами з: 17.09.09
Востаннє: 21.08.17
Повідомлень: 425

2010-06-22 10:12  
weber , ок, переробив.

Прохання до всіх, хто почав завантажувати, наново взяти торрент-файл та продовжити завантаження
(змінилася лише назва файлу) !!!

weber 
Почесний гуртомівець


З нами з: 03.08.08
Востаннє: 31.07.17
Повідомлень: 7001

2010-06-22 12:32  
Ну просто так склалося що гуртом.ком то для всіх а просто гуртом для проекту
SainTManiac 
VIP


З нами з: 17.09.09
Востаннє: 21.08.17
Повідомлень: 425

2010-06-22 13:42  
weber написано:
Ну просто так склалося що гуртом.ком то для всіх а просто гуртом для проекту

Оке Rolleyes (1)

imonko 
Відео Гуртом - фільмокрай
Відео Гуртом - фільмокрай


З нами з: 20.07.08
Востаннє: 11.04.17
Повідомлень: 7308

2010-06-22 19:35  
виклади субтитри укр окремо
Black Fire 
Новенький


З нами з: 11.06.09
Востаннє: 21.08.17
Повідомлень: 2

2010-06-23 09:45  
чи можливо перекодувати під розмір 1,3-1,7Гб а то на ДВД-плеэрі небуде показувати
booka 
Свій


З нами з: 26.04.09
Востаннє: 27.05.17
Повідомлень: 56

2010-06-23 10:27  
Фільм прикольний!!!Але я вже встиг на російській мові подивитися..
SainTManiac 
VIP


З нами з: 17.09.09
Востаннє: 21.08.17
Повідомлень: 425

2010-06-23 16:29  
imonko написано:
виклади субтитри укр окремо

Викладу разом з 720р-міні.

HELLOHAOS 
Свій


З нами з: 13.02.09
Востаннє: 20.08.17
Повідомлень: 56

2010-06-23 20:31  
Я теж за реліз з меншим розміром Happy
vatah 
Свій


З нами з: 08.02.08
Востаннє: 15.07.17
Повідомлень: 104

2010-06-24 16:59  
Ага, зменшіть будь-ласка
SainTManiac 
VIP


З нами з: 17.09.09
Востаннє: 21.08.17
Повідомлень: 425

2010-06-24 17:06  
vatah написано:
Ага, зменшіть будь-ласка

"Пошук" Вам в поміч Happy

bodia 
Свій


З нами з: 22.02.08
Востаннє: 31.05.16
Повідомлень: 86

2010-07-09 12:08  
Якийсь депресивний мультик:/
Deus igrok 
Новенький


З нами з: 11.06.09
Востаннє: 25.02.17
Повідомлень: 11

2010-07-09 17:12  
Мені дуже він сподобався. Два сюжети людей з однаковою проблемою , але різними причинами ...
Рекомендую ...

kapishon 
Частий відвідувач


З нами з: 25.05.09
Востаннє: 23.04.16
Повідомлень: 32

2010-08-05 00:11  
Оформив - супер !

Мульт також кльовий.. і дотепний і цікавий ..)

SainTManiac 
VIP


З нами з: 17.09.09
Востаннє: 21.08.17
Повідомлень: 425

2011-03-12 17:44  
Увага!!!

Торрент оновлено! Додано озвучку від UA Team!


Приємного перегляду! Happy

Andick 
Модератор відео та координатор поширення


З нами з: 03.11.09
Востаннє: 22.08.17
Повідомлень: 1498

2011-03-14 13:15  
SainTManiac написано:
Мері і Макс / Mary and Max (2009) 1080p Ukr/Eng
має бути
SainTManiac написано:
Мері і Макс / Mary and Max (2009) 1080p Ukr/Eng | Sub Ukr/Eng

SainTManiac 
VIP


З нами з: 17.09.09
Востаннє: 21.08.17
Повідомлень: 425

2011-03-14 15:22  
Andick, Ok!
dimich777 
Свій


З нами з: 26.02.10
Востаннє: 01.11.15
Повідомлень: 80

2011-05-02 16:12  
не сподобався ((((
coachpotato 
Новенький


З нами з: 07.02.12
Востаннє: 03.08.17
Повідомлень: 1

2012-03-11 12:19  
Будь-ласка станьте хтось на роздачу)
lasmen 
VIP


З нами з: 09.12.11
Востаннє: 11.08.13
Повідомлень: 625

2012-04-11 01:53  
пластиліновий, думав такі вже не роблять. ну щож, дакую, буду дивитись
The Gunslinger 
Свій


З нами з: 08.04.12
Востаннє: 30.07.17
Повідомлень: 74

2013-03-14 21:42  
Давно хотів подивитися,дякую!
Один з найоригінальніших мультфільмів!
Однозначно вартий перегляду,але розрахований на дорослу аудиторію.

nolik 
Новенький


З нами з: 09.08.12
Востаннє: 20.06.17
Повідомлень: 13

2014-07-01 17:43  
Мультфільм взагалі не сподобався!!!!!!!!!!!!! Такий депресивний, що можна вмерти з горя під час прегляду! Всі тони фільма сірі.... Ввсі персонажі неймовірно страшні!! Дітям, хоча і дорослим теж, цей мультик дивитися не можна!!!!!!!!!!!!!!!!!!!!!!!
Nexus28 
Новенький


З нами з: 28.08.10
Востаннє: 15.08.17
Повідомлень: 9

2014-12-09 04:14  
Дякую! Чудовий мульт.
tzapik 
Частий відвідувач


З нами з: 07.08.14
Востаннє: 22.08.17
Повідомлень: 32

2015-05-04 17:51  
Будь-ласка станьте на роздачу, вже днів 5-6 вантажу
Ваш часовий пояс: GMT + 2 Години

Нова тема   Відповісти