Max Chorny - Gde Trava? (2004) [APE] | Chillout / Lounge / Downtempo

Нові коментарі

Нова тема   Відповісти
Останній раз роздавалося zeron (2011-04-04)
Автор Повідомлення
zeron 
Відео Гуртом - підтримка та поширення
Відео Гуртом - підтримка та поширення


З нами з: 07.05.08
Востаннє: 17.08.17
Повідомлень: 83

2010-05-23 00:40  
Max Chorny - Gde Trava? (2004) [APE] | Chillout / Lounge / Downtempo


Стиль: Chillout, Lounge, Downtempo
Країна: Україна
Видавець: LAVINA MUSIC
Виконавець: Max Chorny
Пісні:
    01. Intro - 01:19
    02. Dnipro Song - 02:44
    03. Old school - 02:26
    04. Good2me - 03:17
    05. Meth - 04:04
    06. Funky - 02:33
    07. Bossa nova - 02:32
    08. Babe - 03:30
    09. Gde Trava? -03:21
    10. Bazilio - 03:01
    11. Electronik theme - 03:10
    12. Pink Glasses - 02:28
    13. Flute - 03:25
    14. Angels - 02:53
    15. Acid Jazz - 03:17
    16. Nature boy - 03:14
    17. Twilights - 02:52
    18. Thing - 02:20
    19. Sadness - 03:18
    20. No pease in my soul - 03:28
    21. Outro - 02:27
EAC
Exact Audio Copy V0.99 prebeta 1 from 25. May 2007

Отчёт EAC об извлечении, выполненном 1. апреля 2009, 13:56

Max Chorny / Gde Trava?

Дисковод: Optiarc DVD RW AD-7173A Adapter: 1 ID: 1

Режим чтения : Достоверность
Использование точного потока : Да
Отключение кэша аудио : Да
Использование указателей C2 : Нет

Коррекция смещения при чтении : 48
Способность читать области Lead-in и Lead-out : Нет
Заполнение пропущенных сэмплов тишиной : Да
Удаление блоков с тишиной в начале и конце : Нет
Интерфейс : Установленный внешний ASPI-интерфейс

Выходной формат : Monkey's Audio Lossless Encoder v3.99 DLL
Формат сэмплов : Fast Lossless Compression

TOC извлечённого CD

Трек | Старт | Длительность | Начальный сектор | Конечный сектор
---------------------------------------------------------------------
1 | 0:00.00 | 1:19.61 | 0 | 5985
2 | 1:19.61 | 2:44.41 | 5986 | 18326
3 | 4:04.27 | 2:26.23 | 18327 | 29299
4 | 6:30.50 | 3:17.64 | 29300 | 44138
5 | 9:48.39 | 4:04.66 | 44139 | 62504
6 | 13:53.30 | 2:33.29 | 62505 | 74008
7 | 16:26.59 | 2:32.67 | 74009 | 85475
8 | 18:59.51 | 3:30.37 | 85476 | 101262
9 | 22:30.13 | 3:21.63 | 101263 | 116400
10 | 25:52.01 | 3:01.55 | 116401 | 130030
11 | 28:53.56 | 3:10.44 | 130031 | 144324
12 | 32:04.25 | 2:38.69 | 144325 | 156243
13 | 34:43.19 | 3:25.14 | 156244 | 171632
14 | 38:08.33 | 2:53.65 | 171633 | 184672
15 | 41:02.23 | 3:17.06 | 184673 | 199453
16 | 44:19.29 | 3:14.26 | 199454 | 214029
17 | 47:33.55 | 2:52.11 | 214030 | 226940
18 | 50:25.66 | 2:20.35 | 226941 | 237475
19 | 52:46.26 | 3:18.71 | 237476 | 252396
20 | 56:05.22 | 3:28.50 | 252397 | 268046
21 | 59:33.72 | 2:27.30 | 268047 | 279101

Характеристики диапазона извлечения и сообщения об ошибках

Выбранный диапазон

Имя файла C:\Users\Oleg\Desktop\Новая папка\Max Chorny - Gde Trava.ape

Пиковый уровень 98.9 %
Качество диапазона 100.0 %
CRC копии 5AF08F68
Копирование... OK

Ошибок не произошло

Конец отчёта
Тривалість: 01:02:01
Мова: без слів (1-8, 13-19, 21) англійська (10) російська (9, 11-12, 20)
Аудіо-кодек: APE (image+.cue)
Бітрейт: lossless 823 кб/с
Джерело: rutracker.org
Додаткова інформація:
Успішний бізнесмен, киянин Макс Чорний є більш відомим як автор альбому реміксів 'Gde Trava?'. В цьому альбомі він активно використовував фрагменти із радянських пісень, науково-популярних фільмів та кінофільмів.

Ремікс популярного хіта 70-х "Беловежская пуща" Білоруської групи "Песняры" приніс йому неабияку популярність, ставши хітом за одну ніч. Цей трек навіть проторував собі стежку до відомої lounge збірки "Siddhartha", що була зміксована резидентом парижського клубу "Buddah Bar" DJ Ravin.

Макс хотів стати музикантом після закінчення школи, але його батько настояв, щоб він серйозніше віднісся до свого майбутнього. Проте Макс не жалкує за 5-ма роками, присвяченими вивченню бізнесу. "Життя музиканта в Українi не є легким сьогодні. Якщо б я пішов відразу ж в музику я б уже напевне здався. Я не роблю гроші на своїй музиці і забезпечую себе, працюючи на основній роботі," каже Макс. Майстер міксів раніше працював в банку, а зараз має свій власний бізнес, управляючи проектами від нерухомості до ресторанного бізнесу. Макс каже, що він отримує насолоду від заробляння грошей, проте створення музики зачаровує і полонить його.

Нещодавно Чорний випустив свій третій альбом "The New Sound of Ethnic Ukraine", в якому використані семпли архіву Національного радіо та інавгураційного виступу Ющенко. "Мій третій альбом було інспіровано насамперед дитячими враженнями від Західної України, куди я їздив провідувати родичів. І це не є спробою заробити собі славу чи мати зиск, спекулюючи на темі Помаранчевої революції." Його новий альбом включає ремікси хітів Руслани і ГрінБджолів.

В його задумах - продюсування альбому, в якому були б з'єднані українські артисти з грузинською та єврейською народною музикою. "Чи це бізнес чи музика, ключовим є віднайти родзинку в тому що ти робиш", посміхається Макс.
Якщо Ви справді бажаєте підтримати українське - після прослуховування, якщо музика вам сподобалась, придбайте ліцензійний диск.
Підтримаймо вітчизняних виконавців!


Срібний реліз (на рейтинг впливає 50% завантаженого)
 Трекер:    Зареєстрований   

Завантажити / скачати українську музику



відео для новачків



 Зареєстрований:   2010-05-23 00:40
 Розмір:   367 MB 
 Оцінка музики:   10/10 (Голосів: 2)
   
ssTAss 
Модератор музики


З нами з: 05.07.08
Востаннє: 17.08.17
Повідомлень: 11750

2010-05-24 01:03  
де рядок "Мова"??
додати та заповнити

mr.killer 
Поважний учасник


З нами з: 11.08.10
Востаннє: 14.08.17
Повідомлень: 160

2016-07-02 17:14  
хтось ще є на роздачі?
Robar III 
Попереджень: 2
Попереджень: 2 


З нами з: 18.08.11
Востаннє: 12.08.17
Повідомлень: 2527

2016-07-02 18:42  
zeron написано:
Останній раз роздавалося zeron (2011-04-04)

Мені цікаво чому це досі не в топці...?

erast76 
Новенький


З нами з: 06.04.15
Востаннє: 15.08.17
Повідомлень: 2

2017-04-08 08:05  
Это мой рип,помогу скачать)
Це мій рип, допоможу скачати, якщо потрібно

ssTAss 
Модератор музики


З нами з: 05.07.08
Востаннє: 17.08.17
Повідомлень: 11750

2017-04-08 15:02  
erast76
в нас спілкуються українською

erast76 
Новенький


З нами з: 06.04.15
Востаннє: 15.08.17
Повідомлень: 2

2017-05-30 15:12  
ssTAss
Пробачте)

Ваш часовий пояс: GMT + 2 Години

Нова тема   Відповісти