Dazzle Dreams | Колекція [2 альбоми] (2007-2009) [APE/FLAC] | Synthpop / Disco

Нові коментарі

Нова тема   Відповісти
Автор Повідомлення
Numan 
Новенький


З нами з: 14.12.09
Востаннє: 01.09.16
Повідомлень: 11

2010-05-21 22:33  
Dazzle Dreams | Колекція [2 альбоми] (2007-2009) [APE/FLAC] | Synthpop / Disco



Стиль: Synth Pop, Disco
Країна: Україна
Сайти: Офіційний сайт
Виконавці:
Дмитро Ципердюк (Dimitri) - вокал, аранжування
Сергій Гера (Шура) - клавішні, аранжування
Грег Ігнатович - аранжування

Альбоми:
2007 - Dazzle Dreams


    1. S.O.S.
    2. Ікона
    3. Shock Your Mind
    4. Clouds Of Clover (Конюшинові Хмари)
    5. Dazzle Dreams
    6. Ікона (Dream Mix)
    7. Moravia Wind
    8. Loreley
    9. No Fear
    10. Grandmama
    11. Sleeping Anna
    12. Holly Night
    13. Blindfold (S.O.S. English version)
    14. Icon (English version)
    15. Ікона (DJ Sukhoi Nu Base Remix)

Аудіо-кодек: APE
Бітрейт: lossless (~600-1040 кбіт/с)
Тривалість: 1:08:28
Видавець: MOON RECORDS
EAC Log
Отчёт EAC об извлечении, выполненном 1. августа 2007, 14:24 для диска:
Dazzle Dreams / Dazzle Dreams

Дисковод: ASUS DRW-1608P Adapter: 0 ID: 1
Режим чтения: Достоверный (C2: нет, Точный поток: да, Отключение кэша: да)
Комбинированное смещение чтения/записи: 48
Способность читать области Lead-in и Lead-out : Да

Выходной формат: Внутренние WAV-операции
44.100 Гц; 16 бит; стерео

Другие параметры:
Заполнение пропущенных сэмплов тишиной : Да
Удаление блоков с тишиной в начале и конце : Нет
Встроенный Win32-интерфейс для Win NT/2000

Характеристики диапазона извлечения и сообщения об ошибках
Выбранный диапазон
Имя файла E:\MUSIC\Lossless\Dazzle Dreams\2007 - Dazzle Dreams\Dazzle Dreams - Dazzle Dreams.wav

Пиковый уровень 100.0 %
Качество диапазона 100.0 %
CRC C93300FE
Копирование... OK

Ошибок не произошло

Конец отчёта
2009 - Go! Go! Go! Disco Killers


    1. Dana She Dana
    2. Disco Killers
    3. Step By Step
    4. Sunrise
    5. Emotional Lady
    6. Я Все Сказав
    7. Мила
    8. Shake
    9. Step By Step (Ballad Version)
    10. Надя
    11. Полонина Voices (Ethno Point-1)
    12. Early (Ethno Point-2)
    13. Dana She Dana (Dj Sukhoi Remix)
    14. Hey You

Аудіо-кодек: FLAC
Бітрейт: lossless (972 кбіт/с)
Тривалість: 00:59:45
Видавець: MOON RECORDS
EAC Log
Exact Audio Copy V0.99 prebeta 5 from 4. May 2009

Отчёт EAC об извлечении, выполненном 29. сентября 2009, 18:21

Dazzle Dreams / (Go! Go! Go!) Disco Killers

Дисковод: PIONEER DVD-RW DVR-111D Adapter: 0 ID: 0

Режим чтения : Достоверность
Использование точного потока : Да
Отключение кэша аудио : Да
Использование указателей C2 : Нет

Коррекция смещения при чтении : 48
Способность читать области Lead-in и Lead-out : Нет
Заполнение пропущенных сэмплов тишиной : Да
Удаление блоков с тишиной в начале и конце : Нет
При вычислениях CRC использовались нулевые сэмплы : Да
Интерфейс : Встроенный Win32-интерфейс для Win NT/2000

Выходной формат : Внутренние WAV-операции
Формат сэмплов : 44.100 Гц; 16 бит; стерео

TOC извлечённого CD

Трек | Старт | Длительность | Начальный сектор | Конечный сектор
---------------------------------------------------------------------
1 | 0:00.00 | 3:49.51 | 0 | 17225
2 | 3:49.51 | 3:12.03 | 17226 | 31628
3 | 7:01.54 | 4:20.69 | 31629 | 51197
4 | 11:22.48 | 4:12.24 | 51198 | 70121
5 | 15:34.72 | 4:44.50 | 70122 | 91471
6 | 20:19.47 | 5:57.37 | 91472 | 118283
7 | 26:17.09 | 4:20.32 | 118284 | 137815
8 | 30:37.41 | 3:47.71 | 137816 | 154911
9 | 34:25.37 | 4:38.20 | 154912 | 175781
10 | 39:03.57 | 4:45.28 | 175782 | 197184
11 | 43:49.10 | 3:48.14 | 197185 | 214298
12 | 47:37.24 | 4:15.19 | 214299 | 233442
13 | 51:52.43 | 3:39.58 | 233443 | 249925
14 | 55:32.26 | 4:12.52 | 249926 | 268877

Характеристики диапазона извлечения и сообщения об ошибках

Выбранный диапазон

Имя файла C:\Documents and Settings\Владелец\Рабочий стол\Dazzle Dreams - (Go! Go! Go!) Disco Killers (2009)\Dazzle Dreams - (Go! Go! Go!) Disco Killers.wav

Пиковый уровень 100.0 %
Качество диапазона 99.9 %
CRC копии B6650174
Копирование... OK

Ошибок не произошло

Конец отчёта
Тривалість: 02:08:13
Мова: українська, англійська
Аудіо-кодек: APE, FLAC
Бітрейт: ~600-1040 кбіт/с
Джерело:
Додаткова інформація:
Два альбоми гурту "Dazzle Dreams"



Якщо Ви справді бажаєте підтримати українське - після прослуховування, якщо музика вам сподобалась, придбайте ліцензійний диск.
Підтримаймо вітчизняних виконавців!


Золотий реліз (завантажене не впливає на рейтинг)
 Трекер:    Зареєстрований   

Завантажити / скачати українську музику



відео для новачків



 Зареєстрований:   2010-05-25 05:17
 Розмір:   873 MB 
 Оцінка музики:   9.9/10 (Голосів: 16)
   
Tarasyk 
Відео Гуртом - фільмокрай
Відео Гуртом - фільмокрай


З нами з: 26.08.09
Востаннє: 19.08.17
Повідомлень: 6354

2010-05-22 15:57  
Numan, прохання ще навести в оформленні під спойлером логи. Воно звісно не обов'язково, але дуже бажано.
Іще додайте магічну фразу:
Якщо Ви справді бажаєте підтримати українське - після прослуховування, якщо музика вам сподобалась, придбайте ліцензійний диск.
Підтримаймо вітчизняних виконавців!

Код:
[center][color=Red]Якщо Ви справді бажаєте підтримати українське - після прослуховування, якщо музика вам сподобалась, [b]придбайте ліцензійний диск[/b].
Підтримаймо вітчизняних виконавців![/color][/center]

а також посилання на ці ж альбоми в MP3 Happy

ssTAss 
Модератор музики


З нами з: 05.07.08
Востаннє: 19.08.17
Повідомлень: 11782

2010-05-24 00:49  
Numan написано:
Стиль: Synth Pop, Disco

маю питання - що робить цей реліз в розділі Рок ??
Numan написано:
Мова: українська, англійська

під спойлером до кожного альбому вказати потреково

bot 
робот


З нами з: 30.09.07
Востаннє: 26.05.05
Повідомлень: 17367

2010-05-25 05:06  
TABAC 
Свій


З нами з: 07.11.10
Востаннє: 17.05.17
Повідомлень: 65

2010-11-24 00:51  
о ні воновкупівсе геть як я написав! там всі треки кожного з альбомів об'єднані в один( не вельми якісний реліз(
ssTAss 
Модератор музики


З нами з: 05.07.08
Востаннє: 19.08.17
Повідомлень: 11782

2010-11-24 01:16  
TABAC, відкриваєте оцей файл
Numan написано:
8 2007 - Dazzle Dreams/Dazzle Dreams - Dazzle Dreams.cue 3 KB

і оцей
Numan написано:
20 2009 - (Go! Go! Go!) Disco Killers/Dazzle Dreams - (Go! Go! Go!) Disco Killers.cue 2 KB

плеєром foobar2000
і буде Вам щастя))
або тягніть мр3 релізи)

TABAC 
Свій


З нами з: 07.11.10
Востаннє: 17.05.17
Повідомлень: 65

2010-12-14 23:30  
Ось, що. я от скачав з даної вами ссилки і він почав писати типу не можна знайти файли і всі треки по черзі давали збій( пошукав в неті фобара стягнув переставив і працює! Тільки незручно соватись з декількома плеєрами(
jinotot 
Почесний оцифрувальник літератури


З нами з: 28.01.09
Востаннє: 07.08.17
Повідомлень: 3234

2010-12-15 00:12  
TABAC, то наріж його в МР3 і не морочся Wink (1) Або стягни з Толоки аналогічні альбоми вже в МР3 (посилання — вгорі, в шапці теми). Або ж звикай до музики в lossless Happy
TABAC 
Свій


З нами з: 07.11.10
Востаннє: 17.05.17
Повідомлень: 65

2010-12-15 00:35  
jinotot Happy та вже стягнув мп3 Happy дякую.
Geezer 
Новенький


З нами з: 24.09.10
Востаннє: 28.01.13
Повідомлень: 1

2011-06-06 18:53  
Вас врятує AIMP2
dedmorozyk 
Новенький


З нами з: 30.09.08
Востаннє: 16.08.17
Повідомлень: 4

2016-08-12 20:11  
А новий диск - Luiku (Dazzle Dreams) - Єгер Майстер (CD) ?
Ваш часовий пояс: GMT + 2 Години

Нова тема   Відповісти