Ховрах обламався / Gopher Broke Avi (2004)

Нові коментарі

Нова тема   Відповісти
Автор Повідомлення
RosXXX 
Модератор субтитрованого


З нами з: 03.05.10
Востаннє: 16.01.21
Повідомлень: 876

2010-05-09 20:55  
Ховрах обламався / Gopher Broke Avi (2004)



Жанр: комедія, мультфільм, короткометражка
Країна: США

Кіностудія / кінокомпанія: Blur Studio
Режисер: Джефф Фоулер
Актори: Грег Берг

Сюжет:
Головний герой - голодний, хитрий, але не дуже вдалий ховрах. На дорозі, яка веде до фермерського ринку, він риє ямку, на якій, на його думку, фермерські машини повинні підстрибувати, гублячи з кузова помідор, моркву й інші смачні речі. Поки ховрашок чхає від дорожнього пилу, або задивляється на вантажівки, або ще що його відволікає, всю смакоту розбирають інші лісові мешканці ...
Головне у цьому мультфільмі українська озвучка.Це щось...


Відео:
Тривалість: 00:04:18
Розмір кадру: 320 * 240
Бітрейт: 255 Kbps
Формат : H.263

Аудіо:
Мова: українська
Переклад: одноголосий закадровий
Автор: Анюта Бойко
Кодек: MP3
Формат: MPEG Audio
Бітрейт : 89.2 Kbps

Скріншоти:





Джерело:
Особиста оцінка: 10 - без зайвих вагань рекомендую всім!

Золотий реліз (завантажене не впливає на рейтинг)
 Трекер:    Зареєстрований   

Завантажити / скачати фільм українською



відео для новачків



 Зареєстрований:   2010-05-09 20:55
 Розмір:   11 MB 
 Оцінка фільму:   9.9/10 (Голосів: 34)
   
Hentaihunter 
VIP


З нами з: 16.08.08
Востаннє: 23.01.21
Повідомлень: 2555

2010-05-09 21:37  
Подивися спочатку специфікації DVD, перш ніж видавати avi за MPEG-2.
RosXXX 
Модератор субтитрованого


З нами з: 03.05.10
Востаннє: 16.01.21
Повідомлень: 876

2010-05-10 09:09  
Перенесіть будь-ласка тему в Іноземні з українським перекладом...
Wink (2)

bot 
робот


З нами з: 30.09.07
Востаннє: 26.05.05
Повідомлень: 26966

2010-05-10 09:30  
Тему перенесено з Мультфільми в DVD до форуму Мультфільми


RosXXX

ua2004 
Відео Гуртом - фільмокрай
Відео Гуртом - фільмокрай


З нами з: 31.01.08
Востаннє: 23.01.21
Повідомлень: 3207

2010-05-10 09:41  
RosXXX написано:
переклад: одноголосий закадровий

А хто озвучив?
RosXXX написано:

кодек: MP3
бітрейт: 8кб/с

Ну це явно замало))

RosXXX 
Модератор субтитрованого


З нами з: 03.05.10
Востаннє: 16.01.21
Повідомлень: 876

2010-05-10 09:44  
ua2004 написано:
А хто озвучив?

невідомо
ua2004 написано:
Ну це явно замало))

не знаю)))так писало)))

imonko 
Відео Гуртом - фільмокрай
Відео Гуртом - фільмокрай


З нами з: 20.07.08
Востаннє: 19.03.18
Повідомлень: 7297

2010-05-10 11:07  
мульт жирний давно є в кращій якості, озвучка для людей з вадами розуму або цілковитої його відсутності
bot 
робот


З нами з: 30.09.07
Востаннє: 26.05.05
Повідомлень: 26966

2010-05-10 11:08  
Тему перенесено з Мультфільми до форуму Короткометражні


imonko

imonko 
Відео Гуртом - фільмокрай
Відео Гуртом - фільмокрай


З нами з: 20.07.08
Востаннє: 19.03.18
Повідомлень: 7297

2010-05-10 11:18  
інфо

General
Complete name : D:\zavantaweni\Мультик - Бультик Wink (1))))))).avi
Format : Flash Video
File size : 11.1 MiB
Duration : 4mn 18s
Overall bit rate : 360 Kbps
Writing application : В Кадре.ру
Tagging application : Yet Another Metadata Injector for FLV - Version 1.2-OA-modified
title : Бультик
author : Анюта Бойко
created_at : 16 April 2009

Video
Format : H.263
Duration : 4mn 18s
Bit rate : 255 Kbps
Width : 320 pixels
Height : 240 pixels
Display aspect ratio : 4:3
Frame rate : 25.000 fps
Bits/(Pixel*Frame) : 0.133
Stream size : 8.10 MiB (73%)

Audio
Format : MPEG Audio
Format version : Version 2
Format profile : Layer 3
Format_Settings_Mode : Joint stereo
Format_Settings_ModeExtension : MS Stereo
Duration : 4mn 18s
Bit rate mode : Variable
Bit rate : 89.2 Kbps
Channel(s) : 2 channels
Sampling rate : 22.05 KHz
Stream size : 2.92 MiB (26%)

Givi 
Модератор відео


З нами з: 25.02.08
Востаннє: 23.01.21
Повідомлень: 2968

2010-05-10 13:10  
Кумедно ))))))
BMK12 
Відео Гуртом - підтримка та поширення
Відео Гуртом - підтримка та поширення


З нами з: 13.04.09
Востаннє: 21.01.21
Повідомлень: 3800

2010-05-19 19:06  
Пропонована коректура (виправлено)
RosXXX написано:
все смакоту
всю

RosXXX 
Модератор субтитрованого


З нами з: 03.05.10
Востаннє: 16.01.21
Повідомлень: 876

2010-05-19 19:17  
BMK12
дякую, щось не замітив)

BMK12 
Відео Гуртом - підтримка та поширення
Відео Гуртом - підтримка та поширення


З нами з: 13.04.09
Востаннє: 21.01.21
Повідомлень: 3800

2010-05-19 20:37  
Нема проблем. Така у мене робота))
Forestelf 
VIP


З нами з: 06.02.09
Востаннє: 21.01.16
Повідомлень: 892

2010-05-23 21:50  
Задум непоганий, мені сподобалося! Краще б якість звуку і голосніше оригінал було б круто! щиро посміхався!
banderlog 
Новенький


З нами з: 17.01.10
Востаннє: 03.04.13
Повідомлень: 1

2011-08-09 21:55  
якби ще якості та голосу не пошкодували як в оригіналі - то було б ДУЖЕ весело

Додано через 1 хвилину 19 секунд:

а є посилання на якісний варіант ?????

Додано через 3 хвилини 48 секунд:

imonko

і де ж він є у добрій якості???? бультик це він і є бультик

Ваш часовий пояс: GMT + 2 Години

Нова тема   Відповісти