Людина темряви / Людина пітьми / Darkman (1990) 1080p H.265 2xUkr/Eng | Sub Eng

Нові коментарі

Нова тема   Відповісти
Автор Повідомлення
Anonymous 







2021-04-09 12:34  
Людина темряви / Людина пітьми / Darkman (1990) 1080p H.265 2xUkr/Eng | Sub Eng

Людина темряви / Людина пітьми / Darkman (1990) 1080p H.265 2xUkr/Eng | Sub Eng


Жанр: фантастика, жахи, трилер, бойовик
Країна: США
Кінокомпанія: Universal Pictures
Режисер: Сем Реймі
Актори: Ліам Нісон, Френсіс Макдорманд, Колін Фрілз, Ларрі Дрейк, Нелсон Машіта, Джессі Лоуренс Фергюсон

Сюжет:
Доктор Пейтон Вістлейк знаходиться на порозі грандіозного відкриття: він закінчує експерименти по створенню штучної людської шкіри. Але банда карних злочинців на чолі зі збоченим садистом Робертом Дюрантом вторгається в лабораторію Пейтона та підриває її разом з нещасним доктором. Дивом залишився в живих і спотворений до невпізнання Пейтон, вирішує помститися покидькам. Але тепер він постане перед ними не як доктор Уестлейк, а як грізна і страшна Людина Пітьми!

Тривалість: 01:35:22
Якість:

Автор ріпу: OldGamer

Відео:
кодек: H.265 (HEVC)
розмір кадру: 1920 x 1040
бітрейт: 6 009 кб/с
бітова глибина: 10 біт

Увага! Перед завантаженням переконайтесь, що ваш пристрій відтворення (та/або ПЗ) підтримує H.265 (HEVC)

Аудіо # 1:
мова: українська
озвучення: двоголосе закадрове
кодек: AC-3 2.0
бітрейт: 192 кб/с
ролі озвучили: Георгій Гавриленко і Лариса Руснак

Аудіо # 2:
мова: українська
озвучення: багатоголосе закадрове
кодек: AC-3 2.0
бітрейт: 192 кб/с
ролі озвучили: Володимир Терещук, Дмитро Терещук, Юрій Гребельник та один жіночий

Аудіо # 3:
мова: англійська
озвучення: оригінал
кодек: AC-3 5.1
бітрейт: 640 кб/с

Субтитри # 1-2: (Full, SDH)
мова: англійська
тип: програмні (м'які)
формат: *.srt


Інформація про файл
Код:
General
Unique ID                                : 143747501493357139475792301006192226370 (0x6C24C3026BC26B4931A6039241B1B042)
Complete name                            : Darkman (1990) 1080p H.265 [2xUKR_ENG] [Hurtom].
Format                                   :
Format version                           : Version 4
File size                                : 4.69 GiB
Duration                                 : 1 h 35 min
Overall bit rate                         : 7 039 kb/s
Movie name                               : Людина темряви / Людина пітьми / Darkman (1990)
Encoded date                             : UTC 2021-04-09 09:26:40
Writing application                      : v20.0.0 ('I Am The Sun') 64-bit
Writing library                          : libebml v1.3.5 + v1.4.8
Cover                                    : Yes
Attachments                              : Cover.jpg

Video
ID                                       : 1
Format                                   : HEVC
Format/Info                              : High Efficiency Video Coding
Format profile                           : Main [email protected]@High
Codec ID                                 : V_MPEGH/ISO/HEVC
Duration                                 : 1 h 35 min
Bit rate                                 : 6 009 kb/s
Width                                    : 1 920 pixels
Height                                   : 1 040 pixels
Display aspect ratio                     : 1.85:1
Frame rate mode                          : Constant
Frame rate                               : 23.976 (24000/1001) FPS
Color space                              : YUV
Chroma subsampling                       : 4:2:0
Bit depth                                : 10 bits
Bits/(Pixel*Frame)                       : 0.126
Stream size                              : 4.00 GiB (85%)
Title                                    : Людина темряви / Людина пітьми / Darkman (1990)
Writing library                          : x265 3.5+1-ce882936d:[Windows][GCC 10.2.0][64 bit] 10bit
Encoding settings                        : cpuid=1111039 / frame-threads=3 / numa-pools=8 / wpp / no-pmode / no-pme / no-psnr / no-ssim / log-level=2 / input-csp=1 / input-res=1920x1040 / interlace=0 / total-frames=137208 / level-idc=41 / high-tier=1 / uhd-bd=0 / ref=5 / no-allow-non-conformance / no-repeat-headers / annexb / no-aud / no-hrd / info / hash=0 / no-temporal-layers / open-gop / min-keyint=23 / keyint=240 / gop-lookahead=0 / bframes=15 / b-adapt=2 / b-pyramid / bframe-bias=0 / rc-lookahead=40 / lookahead-slices=0 / scenecut=40 / hist-scenecut=0 / radl=0 / no-splice / no-intra-refresh / ctu=32 / min-cu-size=8 / rect / amp / max-tu-size=32 / tu-inter-depth=4 / tu-intra-depth=4 / limit-tu=1 / rdoq-level=2 / dynamic-rd=0.00 / no-ssim-rd / signhide / no-tskip / nr-intra=0 / nr-inter=0 / no-constrained-intra / no-strong-intra-smoothing / max-merge=5 / limit-refs=3 / no-limit-modes / me=3 / subme=7 / merange=57 / temporal-mvp / no-frame-dup / no-hme / weightp / weightb / no-analyze-src-pics / deblock=-3:-3 / no-sao / no-sao-non-deblock / rd=6 / selective-sao=0 / no-early-skip / rskip / no-fast-intra / no-tskip-fast / no-cu-lossless / b-intra / no-splitrd-skip / rdpenalty=0 / psy-rd=2.00 / psy-rdoq=1.00 / no-rd-refine / no-lossless / cbqpoffs=0 / crqpoffs=0 / rc=crf / crf=20.0 / qcomp=0.60 / qpstep=4 / stats-write=0 / stats-read=0 / vbv-maxrate=50000 / vbv-bufsize=50000 / vbv-init=0.9 / min-vbv-fullness=50.0 / max-vbv-fullness=80.0 / crf-max=0.0 / crf-min=0.0 / ipratio=1.40 / pbratio=1.30 / aq-mode=1 / aq-strength=1.00 / no-cutree / zone-count=1 / zones: / start-frame=128984 / end-frame=137208 / qp=35 / no-strict-cbr / qg-size=32 / no-rc-grain / qpmax=69 / qpmin=0 / no-const-vbv / sar=1 / overscan=0 / videoformat=5 / range=0 / colorprim=2 / transfer=2 / colormatrix=2 / chromaloc=0 / display-window=0 / cll=0,0 / min-luma=0 / max-luma=1023 / log2-max-poc-lsb=8 / vui-timing-info / vui-hrd-info / slices=1 / no-opt-qp-pps / no-opt-ref-list-length-pps / no-multi-pass-opt-rps / scenecut-bias=0.00 / hist-threshold=0.03 / no-opt-cu-delta-qp / no-aq-motion / no-hdr10 / no-hdr10-opt / no-dhdr10-opt / no-idr-recovery-sei / analysis-reuse-level=0 / analysis-save-reuse-level=0 / analysis-load-reuse-level=0 / scale-factor=0 / refine-intra=0 / refine-inter=0 / refine-mv=1 / refine-ctu-distortion=0 / no-limit-sao / ctu-info=0 / no-lowpass-dct / refine-analysis-type=0 / copy-pic=1 / max-ausize-factor=1.0 / no-dynamic-refine / no-single-sei / no-hevc-aq / no-svt / no-field / qp-adaptation-range=1.00 / scenecut-aware-qp=0conformance-window-offsets / right=0 / bottom=0 / decoder-max-rate=0 / no-vbv-live-multi-pass
Language                                 : English
Default                                  : Yes
Forced                                   : Yes

Audio #1
ID                                       : 2
Format                                   : AC-3
Format/Info                              : Audio Coding 3
Commercial name                          : Dolby Digital
Codec ID                                 : A_AC3
Duration                                 : 1 h 35 min
Bit rate mode                            : Constant
Bit rate                                 : 192 kb/s
Channel(s)                               : 2 channels
Channel layout                           : L R
Sampling rate                            : 48.0 kHz
Frame rate                               : 31.250 FPS (1536 SPF)
Compression mode                         : Lossy
Stream size                              : 131 MiB (3%)
Title                                    : AC-3 / 2.0 Ch / 192 kbps / DVO / 1+1
Language                                 : Ukrainian
Service kind                             : Complete Main
Default                                  : Yes
Forced                                   : Yes

Audio #2
ID                                       : 3
Format                                   : AC-3
Format/Info                              : Audio Coding 3
Commercial name                          : Dolby Digital
Codec ID                                 : A_AC3
Duration                                 : 1 h 35 min
Bit rate mode                            : Constant
Bit rate                                 : 192 kb/s
Channel(s)                               : 2 channels
Channel layout                           : L R
Sampling rate                            : 48.0 kHz
Frame rate                               : 31.250 FPS (1536 SPF)
Compression mode                         : Lossy
Stream size                              : 131 MiB (3%)
Title                                    : AC-3 / 2.0 Ch / 192 kbps / MVO / ICTV
Language                                 : Ukrainian
Service kind                             : Complete Main
Default                                  : No
Forced                                   : No

Audio #3
ID                                       : 4
Format                                   : AC-3
Format/Info                              : Audio Coding 3
Commercial name                          : Dolby Digital
Codec ID                                 : A_AC3
Duration                                 : 1 h 35 min
Bit rate mode                            : Constant
Bit rate                                 : 640 kb/s
Channel(s)                               : 6 channels
Channel layout                           : L R C LFE Ls Rs
Sampling rate                            : 48.0 kHz
Frame rate                               : 31.250 FPS (1536 SPF)
Compression mode                         : Lossy
Stream size                              : 437 MiB (9%)
Title                                    : AC-3 / 5.1 Ch / 640 kbps / Original
Language                                 : English
Service kind                             : Complete Main
Default                                  : No
Forced                                   : No

Text #1
ID                                       : 5
Format                                   : UTF-8
Codec ID                                 : S_TEXT/UTF8
Codec ID/Info                            : UTF-8 Plain Text
Duration                                 : 1 h 28 min
Bit rate                                 : 36 b/s
Count of elements                        : 815
Stream size                              : 23.7 KiB (0%)
Title                                    : Full
Language                                 : English
Default                                  : No
Forced                                   : No

Text #2
ID                                       : 6
Format                                   : UTF-8
Codec ID                                 : S_TEXT/UTF8
Codec ID/Info                            : UTF-8 Plain Text
Duration                                 : 1 h 28 min
Bit rate                                 : 40 b/s
Count of elements                        : 978
Stream size                              : 26.2 KiB (0%)
Title                                    : SDH
Language                                 : English
Default                                  : No
Forced                                   : No

Menu
00:00:00.000                             : en:Just Another Tough Guy
00:07:08.302                             : en:Main Titles
00:14:49.722                             : en:Peyt and Jules
00:21:49.766                             : en:What is It About the Dark?
00:27:06.708                             : en:Blown to Pieces
00:33:37.932                             : en:The Hospital
00:36:29.687                             : en:Setting Up Shop
00:43:25.519                             : en:Rick Retires
00:47:05.948                             : en:Playing Pauly
00:50:18.557                             : en:The Duplicant Durant
00:57:54.345                             : en:The Pink Elephant
01:02:14.772                             : en:War at the Warehouse
01:09:02.930                             : en:Darkman Gets Some
01:19:28.305                             : en:The Enemies In the Air
01:27:06.971                             : en:On the Edge
01:29:42.877                             : en:End Titles: Call Me Darkman
Лог кодування
Код:
x265 [info]: frame I: 584, Avg QP:16.89 kb/s: 16973.31
x265 [info]: frame P: 27889, Avg QP:17.86 kb/s: 12841.32
x265 [info]: frame B: 108735, Avg QP:20.38 kb/s: 4196.92
x265 [info]: Weighted P-Frames: Y:12.6% UV:9.9%
x265 [info]: Weighted B-Frames: Y:12.8% UV:8.4%
x265 [info]: consecutive B-frames: 5.9% 6.5% 7.8% 29.1% 10.3% 26.5% 5.5% 5.5% 1.2% 0.7% 0.3% 0.2% 0.1% 0.1% 0.1% 0.1%
x265 [info]: encoded 137208 frames in 98666.08s (1.39 fps), 6008.37 kb/s, Avg QP:19.86
Світлини




Джерело: & &
Особиста оцінка: 0 - не дивився


Срібний реліз (на рейтинг впливає 50% завантаженого)
 Трекер:    Зареєстрований   

Завантажити / скачати фільм українською



відео для новачків



 Зареєстрований:   2021-04-09 12:34
 Розмір:   4.69 GB 
 Оцінка фільму:   10/10 (Голосів: 2)
   
Інші релізи
Ваш часовий пояс: GMT + 2 Години

Нова тема   Відповісти