Громові сили / Thunder Force (2021) 720p Ukr/Eng | Sub Ukr/Eng

Нові коментарі

Нова тема   Відповісти
Автор Повідомлення
killer2015 
VIP


З нами з: 30.01.15
Востаннє: 22.04.21
Повідомлень: 495

2021-04-09 12:32  
Громові сили / Thunder Force (2021) 720p Ukr/Eng | Sub Ukr/Eng



Жанр: екшн, пригодницький, комедія
Країна: США



Кінокомпанія: Netflix
Режисер: Бен Фелкоун
Актори: Мелісса Маккарті, Октавія Спенсер, Джейсон Бейтман, Тайрелл Джексон Вільямс, Пол Клементьєфф та інші

Сюжет:
У світі, де суперзлодії є звичним явищем, двоє відчужених найкращих друзів дитинства возз'єднуються після того, як одна з подруг винайшла генетичну платформу яка надає суперсили, а інша подруга випадко отримує ці сили і разом вони починають захищати своє місто.


Тривалість: 01:47:14
Якість: 720p
Відео:
кодек:
розмір кадру: 1280x720
бітрейт: 1 836 кб/с

Аудіо#1:
мова: українська
переклад: професійний дубльований | Так Треба Продакшн
кодек: E- 5.1
бітрейт: 640 кб/с

Аудіо#2:
мова: англійська
переклад: оригінал
кодек: E-+Atmos 5.1
бітрейт: 768 кб/с

Субтитри#1,2:
мова: українська
тип: програмні (м'які)
формат: *.srt

Субтитри#3:
мова: англійська
тип: програмні (м'які)
формат: *.srt
Info
General
Unique ID : 11354150007126141941543662163575528537 (0x88ABAD0D79990CD313F419A78715C59)
Complete name : G:\Фільми\Thunder Force 2021 720p [Ukr_Eng] [Hurtom].
Format :
Format version : Version 4
File size : 2.43 GiB
Duration : 1 h 47 min
Overall bit rate mode : Variable
Overall bit rate : 3 246 kb/s
Movie name : Thunder Force 2021 from seleZen
Encoded date : UTC 2021-04-09 09:24:18
Writing application : v47.0.0 ('Black Flag') 64-bit
Writing library : libebml v1.3.10 + v1.5.2

Video
ID : 1
Format : AVC
Format/Info : Advanced Video Codec
Format profile : [email protected]
Format settings : CABAC / 3 Ref Frames
Format settings, CABAC : Yes
Format settings, Reference frames : 3 frames
Codec ID : V_MPEG4/ISO/AVC
Duration : 1 h 47 min
Bit rate mode : Variable
Bit rate : 1 836 kb/s
Nominal bit rate : 2 260 kb/s
Maximum bit rate : 3 390 kb/s
Width : 1 280 pixels
Height : 720 pixels
Display aspect ratio : 16:9
Frame rate mode : Constant
Frame rate : 24.000 FPS
Color space : YUV
Chroma subsampling : 4:2:0
Bit depth : 8 bits
Scan type : Progressive
Bits/(Pixel*Frame) : 0.083
Stream size : 1.38 GiB (57%)
Writing library : core 148 r2722 1b0121b
Encoding settings : cabac=1 / ref=3 / deblock=1:0:0 / analyse=0x1:0x111 / me=umh / subme=10 / psy=1 / psy_rd=1.00:0.00 / mixed_ref=1 / me_range=24 / chroma_me=1 / trellis=2 / 8x8dct=0 / cqm=0 / deadzone=21,11 / fast_pskip=1 / chroma_qp_offset=-2 / threads=6 / lookahead_threads=1 / sliced_threads=0 / nr=0 / decimate=1 / interlaced=0 / bluray_compat=0 / stitchable=1 / constrained_intra=0 / bframes=2 / b_pyramid=0 / b_adapt=2 / b_bias=0 / direct=3 / weightb=1 / open_gop=0 / weightp=2 / keyint=250 / keyint_min=24 / scenecut=0 / intra_refresh=0 / rc_lookahead=48 / rc=2pass / mbtree=1 / bitrate=2260 / ratetol=1.0 / qcomp=0.50 / qpmin=6 / qpmax=51 / qpstep=4 / cplxblur=20.0 / qblur=0.5 / vbv_maxrate=3390 / vbv_bufsize=4520 / nal_hrd=vbr / filler=0 / ip_ratio=1.40 / aq=1:1.00
Language : English
Default : Yes
Forced : No

Audio #1
ID : 2
Format : E-AC-3
Format/Info : Enhanced AC-3
Commercial name : Dolby Digital Plus
Codec ID : A_EAC3
Duration : 1 h 47 min
Bit rate mode : Constant
Bit rate : 640 kb/s
Channel(s) : 6 channels
Channel layout : L R C LFE Ls Rs
Sampling rate : 48.0 kHz
Frame rate : 31.250 FPS (1536 SPF)
Compression mode : Lossy
Stream size : 491 MiB (20%)
Title : Dub [Netflix]
Language : Ukrainian
Service kind : Complete Main
Default : No
Forced : No

Audio #2
ID : 3
Format : E-AC-3 JOC
Format/Info : Enhanced AC-3 with Joint Object Coding
Commercial name : Dolby Digital Plus with Dolby Atmos
Codec ID : A_EAC3
Duration : 1 h 47 min
Bit rate mode : Constant
Bit rate : 768 kb/s
Channel(s) : 6 channels
Channel layout : L R C LFE Ls Rs
Sampling rate : 48.0 kHz
Frame rate : 31.250 FPS (1536 SPF)
Compression mode : Lossy
Stream size : 589 MiB (24%)
Title : English
Language : English
Service kind : Complete Main
Default : No
Forced : No
Complexity index : 16
Number of dynamic objects : 15
Bed channel count : 1 channel
Bed channel configuration : LFE

Text #1
ID : 4
Format : UTF-8
Codec ID : S_TEXT/UTF8
Codec ID/Info : UTF-8 Plain Text
Duration : 1 h 39 min
Bit rate : 2 b/s
Count of elements : 34
Stream size : 1.63 KiB (0%)
Title : Forced
Language : Ukrainian
Default : No
Forced : No

Text #2
ID : 5
Format : UTF-8
Codec ID : S_TEXT/UTF8
Codec ID/Info : UTF-8 Plain Text
Duration : 1 h 45 min
Bit rate : 117 b/s
Count of elements : 1704
Stream size : 90.3 KiB (0%)
Title : Full
Language : Ukrainian
Default : No
Forced : No

Text #3
ID : 6
Format : UTF-8
Codec ID : S_TEXT/UTF8
Codec ID/Info : UTF-8 Plain Text
Duration : 1 h 42 min
Bit rate : 91 b/s
Count of elements : 1967
Stream size : 68.5 KiB (0%)
Language : English
Default : No
Forced : No
Скріншоти



Джерело: seleZen. Подяка пану mrgalser за український постер!
Особиста оцінка: 10 - без зайвих вагань рекомендую всім!


 Трекер:    Зареєстрований   

Завантажити / скачати фільм українською



відео для новачків



 Зареєстрований:   2021-04-09 12:32
 Розмір:   2.43 GB 
 Оцінка фільму:   7.8/10 (Голосів: 17)
   
Інші релізи
SacredName 
Попереджень: 1
Попереджень: 1 


З нами з: 01.01.17
Востаннє: 22.04.21
Повідомлень: 159

2021-04-09 19:52  
2/10 - НЕ ДЛЯ НАШОГО РИНКУ

Черговий висер на тему фемінізму, бодіпозітіву і расової рівності (хоча деякі раси трохи рівніші ніж решта)

Зустрічайте головних героїнь - набір стереотипів домогосподарок середнього віку, заморочених проблемами невирішеного особистого життя. На їх дорозі стануть непереможні вороги, як то - ожиріння, невпевненість в собі, ТА НАЙЛЮТІШИЙ ВОРОГ таких комедій - відсутність гумору у сценариста та режисера!

Ваш часовий пояс: GMT + 2 Години

Нова тема   Відповісти