Кунг-фу (Сезон 1, серії 1-2) / Kung Fu (Season 1, episodes 1-2) (2021)

Нові коментарі

Нова тема   Відповісти
Автор Повідомлення
killer2015 
VIP


З нами з: 30.01.15
Востаннє: 22.04.21
Повідомлень: 495

2021-04-09 11:57  
Кунг-фу (Сезон 1, серії 1-2) / Kung Fu (Season 1, episodes 1-2) (2021)

Кунг-фу (Сезон 1, серії 1-2) / Kung Fu (Season 1, episodes 1-2) (2021)


Жанр: бойовик, драма, пригоди
Країна: США



Кінокомпанія / телеканал: Berlanti Productions, Quinn's House, Warner Bros. Television
Режисер: Ханель М. Кулпеппер, Джо Менендес, Майкл Гої
Актори/ролі озвучують: Шеннон Данг, Олівія Лян, Ци Ма, Гевін Стенхаус, Бредлі Гібсон, Ребекка Олсон, Патриція Пембертон, Енджі Іп, Тоні Чунг, Керолайн Адейр.

Сюжет:
Страждаючи від екзистенціальної кризи, 25-річна Нікі Чен кидає коледж і їде з США у відокремлений китайський монастир. Там дівчина сподівається знайти відповіді на питання, що турбують її. Освоївши бойові мистецтва, героїня повертається додому і, жахнувшись рівнем злочинності в рідному Сан-Франциско, вирішує очистити місто від кримінальних елементів, та заодно помститися загадковому вбивці свого шаоліньского наставника.


Тривалість: 1 серія: 42:19 (цілком серій: 2 серії з 10)
Перелік серій
1. Pilot
2. Silence
3. Patience
4. Episode #1.4
5. Episode #1.5
6. Episode #1.6
7. Episode #1.7
8. Episode #1.8
9. Episode #1.9
10. Episode #1.10
Якість:
Відео:
кодек:
розмір кадру: 720 х 360
бітрейт: 1 792 кб/с

Аудіо:
мова: українська
переклад: багатоголосий закадровий
кодек: 2.0
бітрейт: 384 кб/с

Субтитри (форс):
мова: українська
тип: вбудовані (жорсткі) на надписи
МІ
General
Complete name : G:\Фільми\Kung.Fu (2021) \Kung.Fu.S01E01..400p.ukr.2.0_edit.avi
Format : AVI
Format/Info : Audio Video Interleave
File size : 662 MiB
Duration : 42 min 19 s
Overall bit rate : 2 188 kb/s

Video
ID : 0
Format : MPEG-4 Visual
Format profile : Advanced [email protected]
Format settings : BVOP2
Format settings, BVOP : 2
Format settings, QPel : No
Format settings, GMC : No warppoints
Format settings, Matrix : Default (H.263)
Codec ID :
Codec ID/Hint :
Duration : 42 min 19 s
Bit rate : 1 792 kb/s
Width : 720 pixels
Height : 360 pixels
Display aspect ratio : 2.000
Frame rate : 23.976 (24000/1001) FPS
Color space : YUV
Chroma subsampling : 4:2:0
Bit depth : 8 bits
Scan type : Progressive
Compression mode : Lossy
Bits/(Pixel*Frame) : 0.288
Stream size : 543 MiB (82%)
Writing library : 69

Audio
ID : 1
Format : AC-3
Format/Info : Audio Coding 3
Commercial name : Dolby Digital
Codec ID : 2000
Duration : 42 min 19 s
Bit rate mode : Constant
Bit rate : 384 kb/s
Channel(s) : 2 channels
Channel layout : L R
Sampling rate : 48.0 kHz
Frame rate : 31.250 FPS (1536 SPF)
Compression mode : Lossy
Stream size : 116 MiB (18%)
Alignment : Aligned on interleaves
Interleave, duration : 32 ms (0.77 video frame)
Service kind : Complete Main
Скріншоти




Джерело:
Особиста оцінка: 8 - мені сподобалося


Авторський реліз (завантажувати можна без реєстрації)
 Трекер:    Зареєстрований   

Завантажити / скачати серіал українською



відео для новачків



 Зареєстрований:   2021-04-16 17:03
 Розмір:   1.29 GB 
 Оцінка серіалу:   9.9/10 (Голосів: 7)
   
killer2015 
VIP


З нами з: 30.01.15
Востаннє: 22.04.21
Повідомлень: 495

2021-04-09 11:58  

don pedro 
Попереджень: 1
Попереджень: 1 


З нами з: 29.06.11
Востаннє: 21.04.21
Повідомлень: 19132

2021-04-09 23:03  
Я прокляну кожного, кому не подобаються юні китаянки, які вимахують довгими ногами та зйомки в дусі Джон Ву-99. А мої прокльони страшні...
killer2015 
VIP


З нами з: 30.01.15
Востаннє: 22.04.21
Повідомлень: 495

2021-04-10 10:55  
don pedro
Дуже подобаються азіатки). Та їхня скромність, чемність та покірність... До того ж, їхня краса виглядає такою природньою. Але кореянки мені трішки гарніші за китаянок) а бронзу отримали японки)

kolobok32 
Новенький


З нами з: 13.01.13
Востаннє: 10.04.21
Повідомлень: 9

2021-04-10 18:12  
Мені не подобається кунг-фу як вид єдиноборства. Це марна трата зусиль. А взагалі чого очікувати від китайців. Вони весь час щось там роблять, енергійно махають руками та ногами, але їх зусилля обертаються завжди проти них самих. Мабуть філософія за якою вони існують деструктивна та руйнівна.
tiaro 
Частий відвідувач


З нами з: 01.11.15
Востаннє: 20.04.21
Повідомлень: 37

2021-04-10 20:26  
цікаво, ще залишились фільми, де в головній ролі здоровий білий чоловік?
don pedro 
Попереджень: 1
Попереджень: 1 


З нами з: 29.06.11
Востаннє: 21.04.21
Повідомлень: 19132

2021-04-10 22:15  
killer2015
Тут важко сказати, хто кращий. Очі розбігаютьсяHappy
kolobok32 написано:
Це марна трата зусиль

Забагато показухи.
tiaro написано:
здоровий білий чоловік

Віддаю перевагу прекрасній китаянці.

killer2015 
VIP


З нами з: 30.01.15
Востаннє: 22.04.21
Повідомлень: 495

2021-04-11 11:20  
kolobok32
Я навпаки, обожнюю Кунг-фу. Це бойове мистецтво означає майстерність у будь-яких галузях. Його вивчають та вдосконалюють напротязі усього життя. Ви подивіться на Джекі Чана і теж полюбите).

killer2015 
VIP


З нами з: 30.01.15
Востаннє: 22.04.21
Повідомлень: 495

2021-04-16 17:04  
Додано 2 серію!

shurik_385 
Новенький


З нами з: 08.09.12
Востаннє: 22.04.21
Повідомлень: 2

2021-04-18 00:54  
не сподобалось
Ваш часовий пояс: GMT + 2 Години

Нова тема   Відповісти