Прикинься моїм нареченим / Narzeczony na niby (2018) HDTV 1080i Ukr/Pol | sub Pol

Нові коментарі

Нова тема   Відповісти
Автор Повідомлення
Anonymous 







2021-04-08 23:59  
Прикинься моїм нареченим / Narzeczony na niby (2018) HDTV 1080i Ukr/Pol | sub Pol

Прикинься моїм нареченим / Narzeczony na niby (2018) HDTV 1080i Ukr/Pol | sub Pol


Жанр: комедія, романтичний
Країна: Польща



Кінокомпанія: TFP, Telewizja Polsat
Режисер: Бартош Прокоповіч
Актори: Юлія Каміньска, Соня Богосєвіч, Пйотр Адамчик, Пьотр Страмовскі

Сюжет:
Цю історію зрозуміє кожен, хто хоч раз закохувався не в ту людину. Ідеальне життя, про яке ми мріємо, дуже зрідка насправді є ідеальним, а ті, кому ми віддаємо наші серця, на жаль можуть їх легко зранити.
Каріна намагається з усіх сил побудувати перші (цього разу) щасливі стосунки. Одна непередбачувана подія і одна брехня змінить її впорядковане життя в емоційні американські гірки. Виявиться, що кожен з героїв має якусь приховану таємницю. Коли правда випливе – всі змушені будуть зробити порядок у своїх стосунках і в своїх серцях.


Тривалість: 01:45:06
Якість: HDTV
Відео:
кодек:
розмір кадру: 1920 х 1080
бітрейт: 5065 кб/с

Аудіо # 1:
мова: українська
переклад: багатоголосий закадровий
кодек: 2.0 [стерео]
бітрейт: 192 кб/с

Аудіо # 2:
мова: польська
переклад: оригінал
кодек: MP2
бітрейт: 192 кб/с

Аудіо # 3:
мова: польська (аудіодескрипція)
переклад: оригінал
кодек: MP2
бітрейт: 192 кб/с

Субтитри:
мова: польська
тип: програмні (м'які)
формат: *.srt
Info
Код:
General
Unique ID                                : 195499530546842969141679722618230465138 (0x9313D70A330EE9A6A908F32A6D20E272)
Complete name                            : Narzeczony na niby (2018) HDTV 1080i [Ukr_Pol] [Hurtom].
Format                                   :
Format version                           : Version 4
File size                                : 4.14 GiB
Duration                                 : 1 h 45 min
Overall bit rate                         : 5 646 kb/s
Movie name                               : Прикинься моїм нареченим (2018)
Encoded date                             : UTC 2021-04-08 15:15:20
Writing application                      : v55.0.0 ('Waiting For Space') 64-bit
Writing library                          : libebml v1.4.2 + v1.6.4
Cover                                    : Yes
Attachments                              : cover.jpg

Video
ID                                       : 1
Format                                   : AVC
Format/Info                              : Advanced Video Codec
Format profile                           : [email protected]
Format settings                          : CABAC / 4 Ref Frames
Format settings, CABAC                   : Yes
Format settings, Reference frames        : 4 frames
Codec ID                                 : V_MPEG4/ISO/AVC
Duration                                 : 1 h 45 min
Bit rate                                 : 5 065 kb/s
Width                                    : 1 920 pixels
Height                                   : 1 080 pixels
Display aspect ratio                     : 16:9
Frame rate mode                          : Variable
Frame rate                               : 50.000 FPS
Original frame rate                      : 25.000 FPS
Color space                              : YUV
Chroma subsampling                       : 4:2:0
Bit depth                                : 8 bits
Scan type                                : Interlaced
Scan type, store method                  : Separated fields
Scan order                               : Top Field First
Bits/(Pixel*Frame)                       : 0.049
Stream size                              : 3.72 GiB (90%)
Default                                  : Yes
Forced                                   : No
Color range                              : Limited
Color primaries                          : BT.709
Transfer characteristics                 : BT.709
Matrix coefficients                      : BT.709

Audio #1
ID                                       : 2
Format                                   : AC-3
Format/Info                              : Audio Coding 3
Commercial name                          : Dolby Digital
Codec ID                                 : A_AC3
Duration                                 : 1 h 45 min
Bit rate mode                            : Constant
Bit rate                                 : 192 kb/s
Channel(s)                               : 2 channels
Channel layout                           : L R
Sampling rate                            : 48.0 kHz
Frame rate                               : 31.250 FPS (1536 SPF)
Compression mode                         : Lossy
Stream size                              : 144 MiB (3%)
Language                                 : Ukrainian
Service kind                             : Complete Main
Default                                  : Yes
Forced                                   : Yes

Audio #2
ID                                       : 3
Format                                   : MPEG Audio
Format version                           : Version 1
Format profile                           : Layer 2
Codec ID                                 : A_MPEG/L2
Codec ID/Hint                            : MP2
Duration                                 : 1 h 45 min
Bit rate mode                            : Constant
Bit rate                                 : 192 kb/s
Channel(s)                               : 2 channels
Sampling rate                            : 48.0 kHz
Frame rate                               : 41.667 FPS (1152 SPF)
Compression mode                         : Lossy
Stream size                              : 144 MiB (3%)
Language                                 : Polish
Default                                  : No
Forced                                   : No

Audio #3
ID                                       : 4
Format                                   : MPEG Audio
Format version                           : Version 1
Format profile                           : Layer 2
Codec ID                                 : A_MPEG/L2
Codec ID/Hint                            : MP2
Duration                                 : 1 h 45 min
Bit rate mode                            : Constant
Bit rate                                 : 192 kb/s
Channel(s)                               : 2 channels
Sampling rate                            : 48.0 kHz
Frame rate                               : 41.667 FPS (1152 SPF)
Compression mode                         : Lossy
Stream size                              : 144 MiB (3%)
Default                                  : No
Forced                                   : No

Text
ID                                       : 5
Format                                   : UTF-8
Codec ID                                 : S_TEXT/UTF8
Codec ID/Info                            : UTF-8 Plain Text
Duration                                 : 1 h 43 min
Bit rate                                 : 54 b/s
Count of elements                        : 1148
Stream size                              : 41.6 KiB (0%)
Language                                 : Polish
Default                                  : Yes
Forced                                   : No

Скріншоти





За запис відео дякуємо пану roseintherain
Джерело:


 Трекер:    Зареєстрований   

Завантажити / скачати фільм українською



відео для новачків



 Зареєстрований:   2021-04-08 23:59
 Розмір:   4.14 GB 
 Оцінка фільму:   10/10 (Голосів: 2)
   
Інші релізи
Ваш часовий пояс: GMT + 2 Години

Нова тема   Відповісти