Планета самотніх 3 / Planeta Singli 3 (2019) 1080p Ukr/Pol | sub Eng

Нові коментарі

Нова тема   Відповісти
Автор Повідомлення
Anonymous 







2021-04-08 22:13  
Планета самотніх 3 / Planeta Singli 3 (2019) 1080p Ukr/Pol | sub Eng

Планета самотніх 3 / Planeta Singli 3 (2019) 1080p Ukr/Pol | sub Eng


Жанр: комедія, романтичний
Країна: Польща



Кінокомпанія: Gigant Films
Режисер: Сем Акіна, Міхал Хаціньскі
Актори: Мацей Штур, Аґнєшка Вєндлоха, Богуслав Лінда, Данута Стенка, Марія Пакульніс, Петро Гловацький, Томаш Кароляк, Борис Шіц, Анна Смоловик

Сюжет:
У кожного є якісь проблеми з родичами, в сім'ї. Томек і Аня, нарешті, наважуються на шлюб. Весілля - на прохання Ані - пройде в селі, у родичів Томека, з якими він не підтримує зв'язку. Виявляється, що його брати і мати як італійська сім'я - кожна розмова може закінчитися сваркою, а від великої любові до бійки лише один крок. Олії у вогонь підливає несподівана поява на весіллі батька Томека, який давно зник з життя своєї родини. Море емоцій, сміху і сюрпризів в оповіданні про те, що любов в різні періоди нашого життя це зовсім різні речі.


Тривалість: 01:41:02
Якість:
Відео:
кодек:
розмір кадру: 1920 х 808
бітрейт: 9751 кб/с

Аудіо # 1:
мова: українська
переклад: професійний дубльований
кодек: 2.0
бітрейт: 192 кб/с

Аудіо # 2:
мова: польська
переклад: оригінал
кодек: 5.1
бітрейт: 1509 кб/с

Джерело озвучення:

За українську доріжку дякую п.: Богдан, Drommer, banzaycs

Субтитри:
мова: англійська
тип: програмні (м'які)
формат: *.srt
Info
Код:
General
Unique ID                                : 110081563718829131430255346514224044913 (0x52D0F0200DD83A64137AA3DB25CD5B71)
Complete name                            : Planeta Singli 3 (2019) 1080p [Ukr_Pol] [Hurtom].
Format                                   :
Format version                           : Version 4
File size                                : 8.08 GiB
Duration                                 : 1 h 41 min
Overall bit rate                         : 11.5 Mb/s
Movie name                               : Планета самотніх 3 (2019)
Encoded date                             : UTC 2021-04-08 18:07:03
Writing application                      : v55.0.0 ('Waiting For Space') 64-bit
Writing library                          : libebml v1.4.2 + v1.6.4
Cover                                    : Yes
Attachments                              : cover.jpg

Video
ID                                       : 1
Format                                   : AVC
Format/Info                              : Advanced Video Codec
Format profile                           : [email protected]
Format settings                          : CABAC / 5 Ref Frames
Format settings, CABAC                   : Yes
Format settings, Reference frames        : 5 frames
Codec ID                                 : V_MPEG4/ISO/AVC
Duration                                 : 1 h 41 min
Bit rate                                 : 9 751 kb/s
Width                                    : 1 920 pixels
Height                                   : 808 pixels
Display aspect ratio                     : 2.40:1
Frame rate mode                          : Constant
Frame rate                               : 24.000 FPS
Color space                              : YUV
Chroma subsampling                       : 4:2:0
Bit depth                                : 8 bits
Scan type                                : Progressive
Bits/(Pixel*Frame)                       : 0.262
Stream size                              : 6.88 GiB (85%)
Writing library                          : core 157 r2969 d4099dd
Encoding settings                        : cabac=1 / ref=5 / deblock=1:-3:-3 / analyse=0x3:0x133 / me=umh / subme=9 / psy=1 / psy_rd=1.00:0.00 / mixed_ref=1 / me_range=16 / chroma_me=1 / trellis=2 / 8x8dct=1 / cqm=0 / deadzone=21,11 / fast_pskip=0 / chroma_qp_offset=-2 / threads=12 / lookahead_threads=1 / sliced_threads=0 / nr=0 / decimate=1 / interlaced=0 / bluray_compat=0 / constrained_intra=0 / bframes=3 / b_pyramid=2 / b_adapt=2 / b_bias=0 / direct=3 / weightb=1 / open_gop=0 / weightp=2 / keyint=250 / keyint_min=24 / scenecut=40 / intra_refresh=0 / rc_lookahead=60 / rc=2pass / mbtree=1 / bitrate=9751 / ratetol=1.0 / qcomp=0.60 / qpmin=10 / qpmax=69 / qpstep=4 / cplxblur=20.0 / qblur=0.5 / ip_ratio=1.40 / aq=1:0.70
Default                                  : Yes
Forced                                   : No

Audio #1
ID                                       : 2
Format                                   : AC-3
Format/Info                              : Audio Coding 3
Commercial name                          : Dolby Digital
Codec ID                                 : A_AC3
Duration                                 : 1 h 41 min
Bit rate mode                            : Constant
Bit rate                                 : 192 kb/s
Channel(s)                               : 2 channels
Channel layout                           : L R
Sampling rate                            : 48.0 kHz
Frame rate                               : 31.250 FPS (1536 SPF)
Compression mode                         : Lossy
Stream size                              : 139 MiB (2%)
Language                                 : Ukrainian
Service kind                             : Complete Main
Default                                  : Yes
Forced                                   : Yes

Audio #2
ID                                       : 3
Format                                   :
Format/Info                              : Digital Theater Systems
Codec ID                                 : A_DTS
Duration                                 : 1 h 41 min
Bit rate mode                            : Constant
Bit rate                                 : 1 509 kb/s
Channel(s)                               : 6 channels
Channel layout                           : C L R Ls Rs LFE
Sampling rate                            : 48.0 kHz
Frame rate                               : 93.750 FPS (512 SPF)
Bit depth                                : 24 bits
Compression mode                         : Lossy
Stream size                              : 1.07 GiB (13%)
Language                                 : Polish
Default                                  : No
Forced                                   : No

Text
ID                                       : 4
Format                                   : UTF-8
Codec ID                                 : S_TEXT/UTF8
Codec ID/Info                            : UTF-8 Plain Text
Duration                                 : 1 h 39 min
Bit rate                                 : 49 b/s
Count of elements                        : 1362
Stream size                              : 36.4 KiB (0%)
Language                                 : English
Default                                  : Yes
Forced                                   : No

Menu
00:00:00.000                             : :
00:08:19.750                             : :
00:16:48.208                             : :
00:24:24.500                             : :
00:34:04.250                             : :
00:41:57.250                             : :
00:52:25.458                             : :
01:01:25.625                             : :
01:10:15.958                             : :
01:17:23.208                             : :
01:26:55.458                             : :
01:37:05.500                             : :

Скріншоти





Джерело:


 Трекер:    Зареєстрований   

Завантажити / скачати фільм українською



відео для новачків



 Зареєстрований:   2021-04-08 22:13
 Розмір:   8.08 GB 
 Оцінка фільму:   9.7/10 (Голосів: 3)
   
Інші релізи
   Планета самотніх 3 / Planeta Singli 3 (2019) AVC Ukr/Pol Arsenfpu  10 / 0   1.54 GB   2021-04-09 00:13 
Ваш часовий пояс: GMT + 2 Години

Нова тема   Відповісти