Гра Престолів (Сезон 5) / Game of Thrones (Season 5) (2015) UHD Remux 4K 2160p H.265 HDR 2xUkr/Eng | Sub Eng/Multilang

Нові коментарі

Нова тема   Відповісти
Автор Повідомлення
seasky 
Свій


З нами з: 28.02.19
Востаннє: 23.04.21
Повідомлень: 74

2021-04-08 21:08  
Гра Престолів (Сезон 5) / Game of Thrones (Season 5) (2015) UHD Remux 4K 2160p H.265 HDR 2xUkr/Eng | Sub Eng/Multilang

Гра Престолів (Сезон 5) / Game of Thrones (Season 5) (2015) UHD Remux 4K 2160p H.265 HDR 2xUkr/Eng | Sub Eng/Multilang
Український постер:

Оригінальний офіційний трейлер HBO
Оригінальний офіційний трейлер HBO #2
Родинне дерево Гра Престолів :



Жанр: екшн, пригодницький, драма
Країна: США

| Top Rated TV Shows #12

Кінокомпанія: Home Box Office (HBO), Television 360, Grok! Studio, Generator Entertainment, Bighead Littlehead
Режисер: Тімоті Ван Паттен / Timothy Van Patten, Браян Кірк / Brian Kirk, Деніел Майнахен / Daniel Minahan та Алан Тейлор / Alan Taylor та інші...
Актори: Пітер Дінкледж / Peter Dinklage , Шон Бін / Sean Bean, Ліна Гіді / Lena Headey, Емілія Кларк / Emilia Clarke, Кіт Харінгтон / Kit Harington, Софі Тернер / Sophie Turner, Мейсі Вільямс / Maisie Williams , Ніколай Костер-Валдау / Nikolaj Coster-Waldau, Іен Глен / Iain Glen, Джон Бредлі / John Bradley, Альфі Аллен / Alfie Allen,Конлет Хілл / Conleth Hill, Ліам Каннінґем / Liam Cunningham, Ейдан Ґіллен / Aidan Gillen,Джером Флінн / Jerome Flynn, Чарльз Денс / Charles Dance, Наталі Еммануель / Nathalie Emmanuel та інші...

Сюжет:
Джеймі і Бронн забирають Мірцеллу, але коханка Оберіна, Елларія Сенд, отруює Мірцеллу. Елларія і її дочки бивають владику Дорна і його спадкоємця, захопивши тим самими владу. Джона обирають командувати Нічною Вартою, він прагне миру з дикунами і попри осуд дозволяє їм перетнути охоронювані території. Його товариші організовують змову і вбивають Джона.

Данерис стикається з бунтом прихильників старого ладу і мириться з дворянами, одружившись з одним із них. Тиріон знайомиться з Данерис і стає її радником. Згодом бунтівники ледве не вбивають її, але Данерис рятує дракон. Зумівши втекти, вона однак потрапляє в полон дотракійців.

Мізинець видає Недову дочку Сансу за Рамсі Болтона. Теон Грейджой допомагає Сансі втекти та йде з нею. В Королівській Гавані ж Серсі намагається позбутися від дружини Томмена Маргеріт, скориставшись релігійними фанатиками. Вона, однак, сама стає їх жертвою і зазнає ганебного покарання.

Станніс за намовою Мелісандри приносить свою дочку Шірен у жертву Владиці Світла аби відбити Вінтерфелл. Однак армія Станніса тікає, а його дружина накладає на себе руки. Брієнн Тарт убиває Станніса.

Тривалість: 1 серія: ~56 хв. (цілком серій: 10)
Перелік серій:

01. |00:52:41| Прийдешні війни / The Wars to Come
02. |00:55:35| Дім чорного та білого / The House of Black and White
03. |00:59:57| Верховний горобець / High Sparrow
04. |00:50:26| Сини Гарпії / The Sons Of The Harpys
05. |00:56:43| Убий хлопця / Kill the Boy
06. |00:53:42| Не схилились, не зламались, не здались / Unbowed, Unbent, Unbroken
07. |00:58:52| Подарунок / The Gift
08. |01:00:04| Суворий дім / Hardhome
09. |00:52:24| Танець драконів / The Dance of Dragon
10. |01:00:16| Милість матері / Mother's Mercy
Якість: 4K UltraHD Remux 2160p

Відео:
кодек: H.265 (HEVC)
розмір кадру: 3840 х 2160
бітрейт: 52.6-68.0 Mб/с
бітова глибина: 10 біт
кольоровий простір: BT.2020 (HDR)
Увага! Перед завантаженням переконайтесь, що ваш пристрій відтворення (та/або ПЗ) підтримує H.265 (HEVC)

Аудіо # 1:
мова: українська
переклад: багатоголосий закадровий |
кодек: 5.1
бітрейт: 1509 кб/с

Аудіо # 2:
мова: українська
переклад: багатоголосий закадровий |
кодек: 2.0
бітрейт: 192 кб/с

Аудіо # 3:
мова: англійська
переклад: оригінал
кодек: TrueHD+Atmos 7.1
бітрейт: 4135 кб/с

Аудіо # 4:
мова: англійська
переклад: оригінал
кодек: -HD MA 5.1
бітрейт: 3545 кб/с

Аудіо # 5:
мова: англійська
переклад: оригінал
кодек: 5.1
бітрейт: 1509 кб/с

Аудіо # 6:
мова: англійська
переклад: оригінал
кодек: EX 5.1
бітрейт: 640 кб/с

Аудіо # 7:
мова: англійська
переклад: оригінал
кодек: 5.1
бітрейт: 640 кб/с

Аудіо # 8:
мова: англійська
переклад: оригінал | коментарі #1| commentaries #1
кодек: 5.1
бітрейт: 448 кб/с

Аудіо # 9:
мова: англійська
переклад: оригінал | коментарі #2| commentaries #2
кодек: EAC3 2.0
бітрейт: 192 кб/с

Субтитри: # 1
мова: українська | Forced
тип: програмні
формат: *.

Субтитри: # 2-3
мова: англійська | Forced, Full
тип: програмні (м'які)
формат: *.srt

Субтитри: # 4
мова: англійська
тип: пререндерні
формат: *.pgs

Субтитри: # 5-26
мова: французька, іспанська, німецька, італійська, португальська, чеська, угорська, польська, голандська, данська, фінська, норвезька, шведська, хорватська, грецька, іврит, румунська, словенська, турецька, китайська, корейська, тайська
тип: пререндерні
формат: *.pgs
Збережено оригінальні розділи, як на UHD Blu-ray.
Info
General
Unique ID : 232575061382143754365667819089526216633 (0xAEF853D7428FAE9A00FF0742314357B9)
Complete name : R:\Game of Thrones (2015) - S05E01 - The Wars to Come - UHD Remux 4K 2160p H.265 HEVC HDR 10 2xUkr Eng Sub Eng Multilang [Hurtom].
Format :
Format version : Version 4
File size : 24.6 GiB
Duration : 52 min 41 s
Overall bit rate mode : Variable
Overall bit rate : 66.8 Mb/s
Movie name : Game of Thrones (2015) - S05E01 - The Wars to Come - UHD Remux 4K 2160p H.265 HEVC HDR 10 2xUkr Eng Sub Eng Multilang [Hurtom]
Encoded date : UTC 2021-04-08 10:47:11
Writing application : v56.0.0 ('Strasbourg / St. Denis') 64-bit
Writing library : libebml v1.4.2 + v1.6.4
Cover : Yes
Attachments : Cover.jpg

Video
ID : 1
Format : HEVC
Format/Info : High Efficiency Video Coding
Format profile : Main [email protected]@High
HDR format : SMPTE ST 2086, HDR10 compatible
Codec ID : V_MPEGH/ISO/HEVC
Duration : 52 min 12 s
Bit rate : 54.3 Mb/s
Width : 3 840 pixels
Height : 2 160 pixels
Display aspect ratio : 16:9
Frame rate mode : Constant
Frame rate : 23.976 (24000/1001) FPS
Color space : YUV
Chroma subsampling : 4:2:0 (Type 2)
Bit depth : 10 bits
Bits/(Pixel*Frame) : 0.273
Stream size : 19.8 GiB (81%)
Title : Game of Thrones (2015) - S05E01 - The Wars to Come - UHD Remux 4K 2160p H.265 HEVC HDR 10 [Hurtom]
Default : Yes
Forced : No
Color range : Limited
Color primaries : BT.2020
Transfer characteristics : PQ
Matrix coefficients : BT.2020 non-constant
Mastering display color pri : BT.2020
Mastering display luminance : min: 0.0020 cd/m2, max: 1000 cd/m2

Audio #1
ID : 2
Format :
Format/Info : Digital Theater Systems
Codec ID : A_DTS
Duration : 52 min 41 s
Bit rate mode : Constant
Bit rate : 1 509 kb/s
Channel(s) : 6 channels
Channel layout : C L R Ls Rs LFE
Sampling rate : 48.0 kHz
Frame rate : 93.750 FPS (512 SPF)
Bit depth : 24 bits
Compression mode : Lossy
Stream size : 569 MiB (2%)
Title : 5.1 | 1509 kbps | UATeam
Language : Ukrainian
Default : Yes
Forced : Yes

Audio #2
ID : 3
Format : AC-3
Format/Info : Audio Coding 3
Commercial name : Dolby Digital
Codec ID : A_AC3
Duration : 52 min 11 s
Bit rate mode : Constant
Bit rate : 192 kb/s
Channel(s) : 2 channels
Channel layout : L R
Sampling rate : 48.0 kHz
Frame rate : 31.250 FPS (1536 SPF)
Compression mode : Lossy
Stream size : 71.7 MiB (0%)
Title : 2.0 | 192 kbps | Novy Kanal
Language : Ukrainian
Service kind : Complete Main
Default : No
Forced : No

Audio #3
ID : 4
Format : MLP FBA 16-ch
Format/Info : Meridian Lossless Packing FBA with 16-channel presentation
Commercial name : Dolby TrueHD with Dolby Atmos
Codec ID : A_TRUEHD
Duration : 52 min 12 s
Bit rate mode : Variable
Bit rate : 4 135 kb/s
Maximum bit rate : 7 776 kb/s
Channel(s) : 8 channels
Channel layout : L R C LFE Ls Rs Lb Rb
Sampling rate : 48.0 kHz
Frame rate : 1 200.000 FPS (40 SPF)
Compression mode : Lossless
Stream size : 1.51 GiB (6%)
Title : Original | TrueHD+Atmos 7.1 | 4135 Kbps
Language : English
Default : No
Forced : No
Number of dynamic objects : 11
Bed channel count : 1 channel
Bed channel configuration : LFE

Audio #4
ID : 5
ID in the original source m : 4360 (0x1108)
Format : XLL
Format/Info : Digital Theater Systems
Commercial name : -HD Master Audio
Codec ID : A_DTS
Duration : 52 min 11 s
Bit rate mode : Variable
Bit rate : 3 545 kb/s
Channel(s) : 8 channels
Channel layout : C L R LFE Lb Rb Lss Rss
Sampling rate : 48.0 kHz
Frame rate : 93.750 FPS (512 SPF)
Bit depth : 24 bits
Compression mode : Lossless
Delay relative to video : 21 ms
Stream size : 1.29 GiB (5%)
Title : Original | -HD MA 5.1 | 3545 Kbps
Language : English
Default : No
Forced : No
Original source medium : Blu-ray

Audio #5
ID : 6
Format :
Format/Info : Digital Theater Systems
Codec ID : A_DTS
Duration : 52 min 11 s
Bit rate mode : Constant
Bit rate : 1 509 kb/s
Channel(s) : 6 channels
Channel layout : C L R Ls Rs LFE
Sampling rate : 48.0 kHz
Frame rate : 93.750 FPS (512 SPF)
Bit depth : 24 bits
Compression mode : Lossy
Stream size : 563 MiB (2%)
Title : Original | 5.1 | 1509 Kbps
Language : English
Default : No
Forced : No

Audio #6
ID : 7
ID in the original source m : 4355 (0x1103)
Format : AC-3
Format/Info : Audio Coding 3
Commercial name : Dolby Digital
Format settings : Dolby Surround EX
Codec ID : A_AC3
Duration : 52 min 11 s
Bit rate mode : Constant
Bit rate : 640 kb/s
Channel(s) : 6 channels
Channel layout : L R C LFE Ls Rs
Sampling rate : 48.0 kHz
Frame rate : 31.250 FPS (1536 SPF)
Compression mode : Lossy
Stream size : 239 MiB (1%)
Title : Original | 5.1 EX | 640 Kbps
Language : English
Service kind : Complete Main
Default : No
Forced : No
Original source medium : Blu-ray

Audio #7
ID : 8
Format : AC-3
Format/Info : Audio Coding 3
Commercial name : Dolby Digital
Codec ID : A_AC3
Duration : 52 min 11 s
Bit rate mode : Constant
Bit rate : 640 kb/s
Channel(s) : 6 channels
Channel layout : L R C LFE Ls Rs
Sampling rate : 48.0 kHz
Frame rate : 31.250 FPS (1536 SPF)
Compression mode : Lossy
Stream size : 239 MiB (1%)
Title : Original | 5.1 | 640 Kbps
Language : English
Service kind : Complete Main
Default : No
Forced : No

Audio #8
ID : 9
ID in the original source m : 4359 (0x1107)
Format : AC-3
Format/Info : Audio Coding 3
Commercial name : Dolby Digital
Codec ID : A_AC3
Duration : 52 min 11 s
Bit rate mode : Constant
Bit rate : 448 kb/s
Channel(s) : 6 channels
Channel layout : L R C LFE Ls Rs
Sampling rate : 48.0 kHz
Frame rate : 31.250 FPS (1536 SPF)
Compression mode : Lossy
Stream size : 167 MiB (1%)
Title : Original | 5.1 | 448 Kbps | commentaries
Language : English
Service kind : Complete Main
Default : No
Forced : No
Original source medium : Blu-ray

Audio #9
ID : 10
ID in the original source m : 6656 (0x1A00)
Format : E-AC-3
Format/Info : Enhanced AC-3
Commercial name : Dolby Digital Plus
Codec ID : A_EAC3
Duration : 52 min 11 s
Bit rate mode : Constant
Bit rate : 192 kb/s
Channel(s) : 2 channels
Channel layout : L R
Sampling rate : 48.0 kHz
Frame rate : 31.250 FPS (1536 SPF)
Compression mode : Lossy
Stream size : 71.7 MiB (0%)
Title : Original | EAC3 2.0 | 192 Kbps | commentaries
Language : English
Service kind : Complete Main
Default : No
Forced : No
Original source medium : Blu-ray

Text #1
ID : 11
Format :
Codec ID : S_TEXT/
Codec ID/Info : Advanced Sub Station Alpha
Duration : 16 min 4 s
Bit rate : 3 b/s
Count of elements : 8
Compression mode : Lossless
Stream size : 449 Bytes (0%)
Title : Forced
Language : Ukrainian
Default : Yes
Forced : Yes

Text #2
ID : 12
Format : UTF-8
Codec ID : S_TEXT/UTF8
Codec ID/Info : UTF-8 Plain Text
Duration : 1 min 35 s
Bit rate : 14 b/s
Count of elements : 7
Stream size : 170 Bytes (0%)
Title : Forced
Language : English
Default : No
Forced : No

Text #3
ID : 13
Format : UTF-8
Codec ID : S_TEXT/UTF8
Codec ID/Info : UTF-8 Plain Text
Duration : 46 min 49 s
Bit rate : 56 b/s
Count of elements : 587
Stream size : 19.5 KiB (0%)
Title : Full
Language : English
Default : No
Forced : No

Text #4
ID : 14
Format : PGS
Muxing mode : zlib
Codec ID : S_HDMV/PGS
Codec ID/Info : Picture based subtitle format used on BDs/HD-DVDs
Duration : 48 min 18 s
Bit rate : 36.9 kb/s
Count of elements : 1252
Stream size : 12.8 MiB (0%)
Language : English
Default : No
Forced : No

Text #5
ID : 15
Format : PGS
Muxing mode : zlib
Codec ID : S_HDMV/PGS
Codec ID/Info : Picture based subtitle format used on BDs/HD-DVDs
Duration : 49 min 57 s
Bit rate : 29.9 kb/s
Count of elements : 1198
Stream size : 10.7 MiB (0%)
Language : French
Default : No
Forced : No

Text #6
ID : 16
Format : PGS
Muxing mode : zlib
Codec ID : S_HDMV/PGS
Codec ID/Info : Picture based subtitle format used on BDs/HD-DVDs
Duration : 46 min 49 s
Bit rate : 36.2 kb/s
Count of elements : 1172
Stream size : 12.1 MiB (0%)
Language : Spanish
Default : No
Forced : No

Text #7
ID : 17
Format : PGS
Muxing mode : zlib
Codec ID : S_HDMV/PGS
Codec ID/Info : Picture based subtitle format used on BDs/HD-DVDs
Duration : 46 min 49 s
Bit rate : 37.0 kb/s
Count of elements : 1058
Stream size : 12.4 MiB (0%)
Language : German
Default : No
Forced : No

Text #8
ID : 18
Format : PGS
Muxing mode : zlib
Codec ID : S_HDMV/PGS
Codec ID/Info : Picture based subtitle format used on BDs/HD-DVDs
Duration : 48 min 31 s
Bit rate : 36.9 kb/s
Count of elements : 1230
Stream size : 12.8 MiB (0%)
Language : Italian
Default : No
Forced : No

Text #9
ID : 19
Format : PGS
Muxing mode : zlib
Codec ID : S_HDMV/PGS
Codec ID/Info : Picture based subtitle format used on BDs/HD-DVDs
Duration : 46 min 49 s
Bit rate : 37.2 kb/s
Count of elements : 1164
Stream size : 12.5 MiB (0%)
Language : Portuguese
Default : No
Forced : No

Text #10
ID : 20
Format : PGS
Muxing mode : zlib
Codec ID : S_HDMV/PGS
Codec ID/Info : Picture based subtitle format used on BDs/HD-DVDs
Duration : 47 min 13 s
Bit rate : 34.6 kb/s
Count of elements : 1012
Stream size : 11.7 MiB (0%)
Language : Czech
Default : No
Forced : No

Text #11
ID : 21
Format : PGS
Muxing mode : zlib
Codec ID : S_HDMV/PGS
Codec ID/Info : Picture based subtitle format used on BDs/HD-DVDs
Duration : 47 min 22 s
Bit rate : 35.5 kb/s
Count of elements : 1134
Stream size : 12.0 MiB (0%)
Language : Hungarian
Default : No
Forced : No

Text #12
ID : 22
Format : PGS
Muxing mode : zlib
Codec ID : S_HDMV/PGS
Codec ID/Info : Picture based subtitle format used on BDs/HD-DVDs
Duration : 51 min 54 s
Bit rate : 25.0 kb/s
Count of elements : 942
Stream size : 9.29 MiB (0%)
Language : Polish
Default : No
Forced : No

Text #13
ID : 23
Format : PGS
Muxing mode : zlib
Codec ID : S_HDMV/PGS
Codec ID/Info : Picture based subtitle format used on BDs/HD-DVDs
Duration : 46 min 49 s
Bit rate : 36.6 kb/s
Count of elements : 1172
Stream size : 12.3 MiB (0%)
Language : Dutch
Default : No
Forced : No

Text #14
ID : 24
Format : PGS
Muxing mode : zlib
Codec ID : S_HDMV/PGS
Codec ID/Info : Picture based subtitle format used on BDs/HD-DVDs
Duration : 46 min 49 s
Bit rate : 34.8 kb/s
Count of elements : 1168
Stream size : 11.7 MiB (0%)
Language : Danish
Default : No
Forced : No

Text #15
ID : 25
Format : PGS
Muxing mode : zlib
Codec ID : S_HDMV/PGS
Codec ID/Info : Picture based subtitle format used on BDs/HD-DVDs
Duration : 46 min 49 s
Bit rate : 33.4 kb/s
Count of elements : 1160
Stream size : 11.2 MiB (0%)
Language : Finnish
Default : No
Forced : No

Text #16
ID : 26
Format : PGS
Muxing mode : zlib
Codec ID : S_HDMV/PGS
Codec ID/Info : Picture based subtitle format used on BDs/HD-DVDs
Duration : 46 min 49 s
Bit rate : 33.8 kb/s
Count of elements : 1172
Stream size : 11.3 MiB (0%)
Language : Norwegian
Default : No
Forced : No

Text #17
ID : 27
Format : PGS
Muxing mode : zlib
Codec ID : S_HDMV/PGS
Codec ID/Info : Picture based subtitle format used on BDs/HD-DVDs
Duration : 46 min 49 s
Bit rate : 35.3 kb/s
Count of elements : 1172
Stream size : 11.8 MiB (0%)
Language : Swedish
Default : No
Forced : No

Text #18
ID : 28
Format : PGS
Muxing mode : zlib
Codec ID : S_HDMV/PGS
Codec ID/Info : Picture based subtitle format used on BDs/HD-DVDs
Duration : 47 min 14 s
Bit rate : 29.8 kb/s
Count of elements : 776
Stream size : 10.1 MiB (0%)
Language : Croatian
Default : No
Forced : No

Text #19
ID : 29
Format : PGS
Muxing mode : zlib
Codec ID : S_HDMV/PGS
Codec ID/Info : Picture based subtitle format used on BDs/HD-DVDs
Duration : 49 min 58 s
Bit rate : 38.6 kb/s
Count of elements : 1198
Stream size : 13.8 MiB (0%)
Language : Greek
Default : No
Forced : No

Text #20
ID : 30
Format : PGS
Muxing mode : zlib
Codec ID : S_HDMV/PGS
Codec ID/Info : Picture based subtitle format used on BDs/HD-DVDs
Duration : 47 min 13 s
Bit rate : 23.1 kb/s
Count of elements : 1138
Stream size : 7.80 MiB (0%)
Language : Hebrew
Default : No
Forced : No

Text #21
ID : 31
Format : PGS
Muxing mode : zlib
Codec ID : S_HDMV/PGS
Codec ID/Info : Picture based subtitle format used on BDs/HD-DVDs
Duration : 47 min 15 s
Bit rate : 33.5 kb/s
Count of elements : 862
Stream size : 11.3 MiB (0%)
Language : Romanian
Default : No
Forced : No

Text #22
ID : 32
Format : PGS
Muxing mode : zlib
Codec ID : S_HDMV/PGS
Codec ID/Info : Picture based subtitle format used on BDs/HD-DVDs
Duration : 47 min 14 s
Bit rate : 29.4 kb/s
Count of elements : 776
Stream size : 9.93 MiB (0%)
Language : Slovenian
Default : No
Forced : No

Text #23
ID : 33
Format : PGS
Muxing mode : zlib
Codec ID : S_HDMV/PGS
Codec ID/Info : Picture based subtitle format used on BDs/HD-DVDs
Duration : 46 min 49 s
Bit rate : 38.6 kb/s
Count of elements : 1052
Stream size : 12.9 MiB (0%)
Language : Turkish
Default : No
Forced : No

Text #24
ID : 34
Format : PGS
Muxing mode : zlib
Codec ID : S_HDMV/PGS
Codec ID/Info : Picture based subtitle format used on BDs/HD-DVDs
Duration : 48 min 46 s
Bit rate : 27.7 kb/s
Count of elements : 1202
Stream size : 9.68 MiB (0%)
Language : Chinese
Default : No
Forced : No

Text #25
ID : 35
Format : PGS
Muxing mode : zlib
Codec ID : S_HDMV/PGS
Codec ID/Info : Picture based subtitle format used on BDs/HD-DVDs
Duration : 47 min 13 s
Bit rate : 23.9 kb/s
Count of elements : 1156
Stream size : 8.07 MiB (0%)
Language : Korean
Default : No
Forced : No

Text #26
ID : 36
Format : PGS
Muxing mode : zlib
Codec ID : S_HDMV/PGS
Codec ID/Info : Picture based subtitle format used on BDs/HD-DVDs
Duration : 47 min 13 s
Bit rate : 25.3 kb/s
Count of elements : 1170
Stream size : 8.54 MiB (0%)
Language : Thai
Default : No
Forced : No

Menu
00:00:00.000 : 00:00:00.000
00:01:55.532 : 00:01:55.532
00:09:24.564 : 00:09:24.564
00:18:00.663 : 00:18:00.663
00:24:16.455 : 00:24:16.455
00:32:26.820 : 00:32:26.820
00:41:24.107 : 00:41:24.107
00:50:51.924 : 00:50:51.924
Скріншоти







Джерело: &
Особиста оцінка: 10 - без зайвих вагань рекомендую всім!



Авторський реліз (завантажувати можна без реєстрації)
 Трекер:    Зареєстрований   

Завантажити / скачати серіал українською



відео для новачків



 Зареєстрований:   2021-04-08 21:08
 Розмір:   270.59 GB 
 Оцінка серіалу:   8.7/10 (Голосів: 7)
   
sanshivam 
Новенький


З нами з: 21.03.20
Востаннє: 23.04.21
Повідомлень: 1

2021-04-08 22:11  
Thank uuuuu
elektryk125 
Новенький


З нами з: 28.09.11
Востаннє: 23.04.21
Повідомлень: 13

2021-04-22 19:28  
А де ділись інші сезони Game of Thrones в UHD Remux 4K 2160p
Masanchick 
VIP


З нами з: 08.04.11
Востаннє: 23.04.21
Повідомлень: 1680

2021-04-22 20:55  
elektryk125
Правовласники написали скарги , вони приховані тепер

Ваш часовий пояс: GMT + 2 Години

Нова тема   Відповісти