Фокус Покус / Hocus Pocus (1993) AVC 3xUkr/Eng | Sub Eng

Нові коментарі

Нова тема   Відповісти
Автор Повідомлення
Anonymous 







2021-04-08 20:14  
Фокус Покус / Hocus Pocus (1993) AVC 3xUkr/Eng | Sub Eng

Фокус Покус / Hocus Pocus (1993) AVC 3xUkr/Eng | Sub Eng


Жанр: фентезі, комедія, сімейний
Країна: США
Кінокомпанія: Walt Disney Pictures
Режисер: Кенні Ортеґа / Kenny Ortega
Актори: Бетті Мідлер / Bette Midler, Сара Джессіка Паркер / Sarah Jessica Parker, Кеті Наджімі / Kathy Najimy, Омрі Катц / Omri Katz, Вінесса Шоу / Vinessa Shaw та інші

Сюжет:
Згідно з легендою, якщо безневинна дитина в ніч на Хелловін запалить свічку в будинку сестер Сандерсон, то відьми повстануть з могил та з'їдять всіх дітей у місті, щоб самим стати вічно молодими.

Оскільки підступним сестрицям судилося воскреснути через 300 років після страти за чаклунство, їм доведеться звикати до сучасних вдач. Наприклад, навіщо літати на мітлі, якщо є пилосос? Роблячи всякі магічні гидоти, сестриці Сандерсон так захоплюються цим заняттям, що забувають про свого хитрого противника - чорного кота ...

Тривалість: 01:36:08
Якість: AVC

Відео:
кодек:
розмір кадру: 1024 x 556
бітрейт: 3456 кб/с

Аудіо # 1:
мова: українська
озвучення: професійне багатоголосе закадрове
ролі озвучили: Олександр Солодкий, Лідія Муращенко, Олена Борозенець, Володимир Паляниця, Катерина Буцька, Євген Локтіонов
кодек: AC-3 2.0
бітрейт: 192 кб/с

Аудіо # 2:
мова: українська
озвучення: аматорське багатоголосе закадрове | UFDUB_TR
кодек: AC-3 2.0
бітрейт: 192 кб/с
Інформація про озвучення
Переклад: Ayla
Озвучили: Ayla, Ninja, Stepalex, Hoshi, VOLCUA, Maxx_light, irenneri
Збірка звуку: Грицька
Аудіо # 3:
мова: українська
озвучення: професійне двоголосе закадрове
ролі озвучили: Євген Нищук і Юлія Перенчук
кодек: AC-3 2.0
бітрейт: 192 кб/с
примітка: на кілька неозвучених фраз перед титрами є форсовані субтитри

Аудіо # 4:
мова: англійська
озвучення: оригінал
кодек: AC-3 5.1
бітрейт: 448 кб/с

Субтитри # 1: (форсовані, на кілька неозвучених фраз перед титрами у 3 доріжці)
мова: українська
тип: програмні (м'які)
формат: *.srt

Субтитри # 2-3: (Full, SDH)
мова: англійська
тип: програмні (м'які)
формат: *.srt


Інформація про файл
Код:
General
Unique ID                                : 214416517083074632946834549020758666572 (0xA14F1E7C2AF865CA5DCD406AD6806D4C)
Complete name                            : Hocus Pocus (1993) AVC [3xUKR_ENG] [Hurtom].
Format                                   :
Format version                           : Version 4
File size                                : 3.01 GiB
Duration                                 : 1 h 37 min
Overall bit rate                         : 4 442 kb/s
Movie name                               : Фокус Покус / Hocus Pocus (1993)
Encoded date                             : UTC 2021-04-09 18:55:31
Writing application                      : v20.0.0 ('I Am The Sun') 64-bit
Writing library                          : libebml v1.3.5 + v1.4.8
Cover                                    : Yes
Attachments                              : Cover.jpg

Video
ID                                       : 1
Format                                   : AVC
Format/Info                              : Advanced Video Codec
Format profile                           : [email protected]
Format settings                          : CABAC / 10 Ref Frames
Format settings, CABAC                   : Yes
Format settings, Reference frames        : 10 frames
Codec ID                                 : V_MPEG4/ISO/AVC
Duration                                 : 1 h 36 min
Bit rate                                 : 3 456 kb/s
Width                                    : 1 024 pixels
Height                                   : 556 pixels
Display aspect ratio                     : 1.85:1
Frame rate mode                          : Constant
Frame rate                               : 23.976 (24000/1001) FPS
Color space                              : YUV
Chroma subsampling                       : 4:2:0
Bit depth                                : 8 bits
Scan type                                : Progressive
Bits/(Pixel*Frame)                       : 0.253
Stream size                              : 2.32 GiB (77%)
Title                                    : Фокус Покус / Hocus Pocus (1993)
Writing library                          : core 128 r2216 198a7ea
Encoding settings                        : cabac=1 / ref=10 / deblock=1:-2:-1 / analyse=0x3:0x113 / me=umh / subme=11 / psy=1 / psy_rd=1.00:0.20 / mixed_ref=1 / me_range=32 / chroma_me=1 / trellis=2 / 8x8dct=1 / cqm=0 / deadzone=21,11 / fast_pskip=0 / chroma_qp_offset=-3 / threads=3 / lookahead_threads=1 / sliced_threads=0 / nr=0 / decimate=0 / interlaced=0 / bluray_compat=0 / constrained_intra=0 / bframes=9 / b_pyramid=2 / b_adapt=2 / b_bias=0 / direct=3 / weightb=1 / open_gop=0 / weightp=2 / keyint=240 / keyint_min=23 / scenecut=40 / intra_refresh=0 / rc_lookahead=40 / rc=2pass / mbtree=0 / bitrate=3456 / ratetol=1.0 / qcomp=0.60 / qpmin=0 / qpmax=69 / qpstep=4 / cplxblur=20.0 / qblur=0.5 / vbv_maxrate=50000 / vbv_bufsize=50000 / nal_hrd=none / ip_ratio=1.40 / pb_ratio=1.30 / aq=1:1.00
Language                                 : English
Default                                  : Yes
Forced                                   : Yes

Audio #1
ID                                       : 2
Format                                   : AC-3
Format/Info                              : Audio Coding 3
Commercial name                          : Dolby Digital
Codec ID                                 : A_AC3
Duration                                 : 1 h 36 min
Bit rate mode                            : Constant
Bit rate                                 : 192 kb/s
Channel(s)                               : 2 channels
Channel layout                           : L R
Sampling rate                            : 48.0 kHz
Frame rate                               : 31.250 FPS (1536 SPF)
Compression mode                         : Lossy
Stream size                              : 132 MiB (4%)
Title                                    : AC-3 / 2.0 Ch / 192 kbps / MVO
Language                                 : Ukrainian
Service kind                             : Complete Main
Default                                  : Yes
Forced                                   : Yes

Audio #2
ID                                       : 3
Format                                   : AC-3
Format/Info                              : Audio Coding 3
Commercial name                          : Dolby Digital
Codec ID                                 : A_AC3
Duration                                 : 1 h 37 min
Bit rate mode                            : Constant
Bit rate                                 : 192 kb/s
Channel(s)                               : 2 channels
Channel layout                           : L R
Sampling rate                            : 44.1 kHz
Frame rate                               : 28.711 FPS (1536 SPF)
Compression mode                         : Lossy
Stream size                              : 133 MiB (4%)
Title                                    : AC-3 / 2.0 Ch / 192 kbps / MVO / UFDUB_TR
Language                                 : Ukrainian
Service kind                             : Complete Main
Default                                  : No
Forced                                   : No

Audio #3
ID                                       : 4
Format                                   : AC-3
Format/Info                              : Audio Coding 3
Commercial name                          : Dolby Digital
Codec ID                                 : A_AC3
Duration                                 : 1 h 36 min
Bit rate mode                            : Constant
Bit rate                                 : 192 kb/s
Channel(s)                               : 2 channels
Channel layout                           : L R
Sampling rate                            : 48.0 kHz
Frame rate                               : 31.250 FPS (1536 SPF)
Compression mode                         : Lossy
Stream size                              : 132 MiB (4%)
Title                                    : AC-3 / 2.0 Ch / 192 kbps / DVO / TET
Language                                 : Ukrainian
Service kind                             : Complete Main
Default                                  : No
Forced                                   : No

Audio #4
ID                                       : 5
Format                                   : AC-3
Format/Info                              : Audio Coding 3
Commercial name                          : Dolby Digital
Codec ID                                 : A_AC3
Duration                                 : 1 h 36 min
Bit rate mode                            : Constant
Bit rate                                 : 448 kb/s
Channel(s)                               : 6 channels
Channel layout                           : L R C LFE Ls Rs
Sampling rate                            : 48.0 kHz
Frame rate                               : 31.250 FPS (1536 SPF)
Compression mode                         : Lossy
Stream size                              : 309 MiB (10%)
Title                                    : AC-3 / 5.1 Ch / 448 kbps / Original
Language                                 : English
Service kind                             : Complete Main
Default                                  : No
Forced                                   : No

Text #1
ID                                       : 6
Format                                   : UTF-8
Codec ID                                 : S_TEXT/UTF8
Codec ID/Info                            : UTF-8 Plain Text
Duration                                 : 23 s 980 ms
Bit rate                                 : 57 b/s
Count of elements                        : 4
Stream size                              : 173 Bytes (0%)
Title                                    : Forced
Language                                 : Ukrainian
Default                                  : No
Forced                                   : No

Text #2
ID                                       : 7
Format                                   : UTF-8
Codec ID                                 : S_TEXT/UTF8
Codec ID/Info                            : UTF-8 Plain Text
Duration                                 : 1 h 32 min
Bit rate                                 : 57 b/s
Count of elements                        : 1284
Stream size                              : 38.8 KiB (0%)
Title                                    : Full
Language                                 : English
Default                                  : No
Forced                                   : No

Text #3
ID                                       : 8
Format                                   : UTF-8
Codec ID                                 : S_TEXT/UTF8
Codec ID/Info                            : UTF-8 Plain Text
Duration                                 : 1 h 33 min
Bit rate                                 : 68 b/s
Count of elements                        : 1490
Stream size                              : 46.4 KiB (0%)
Title                                    : SDH
Language                                 : English
Default                                  : No
Forced                                   : No

Menu
00:00:00.000                             : en:Opening Titles/Life Force Spell
00:08:40.937                             : en:The Legend Of Thackery Binx
00:14:01.465                             : en:New Kid In Town
00:20:20.010                             : en:Trick Or Treat
00:26:46.479                             : en:Black Flame Candle
00:32:11.596                             : en:Return Of The Sanderson Sisters
00:36:44.076                             : en:Hallowed Ground
00:43:59.595                             : en:Bus Ride Into Town
00:48:04.298                             : en:The Master's House
00:54:18.630                             : en:Town Hall Party
01:01:23.346                             : en:Witch Burning
01:06:03.167                             : en:Ugly Chicks Stay Up Late
01:08:22.723                             : en:Opening The Book
01:14:39.850                             : en:Come, Little Children
01:21:30.343                             : en:Winifred's Potion
01:29:10.553                             : en:The Spell Is Broken/End Credits
Лог кодування
Код:
[info]: frame I:1196 Avg QP:16.60 size: 81972
[info]: frame P:28710 Avg QP:19.45 size: 33790
[info]: frame B:108389 Avg QP:20.94 size: 13138
Світлини



Подяки
Ріп відео, оригінальні звук та субтитри - 0ptimus (HDClub);
1 українська доріжка - -Star-Lord- - надання, Arsenfpu - зведення;
3 українська доріжка - robotron005 - зведення, POMEO - запис з ТБ;
українські форсовані субтитри - igor911;
фільмографії акторів та інформація про озвучення - Віктор.

Джерело: &
Особиста оцінка: 0 - не дивився


Авторський реліз (завантажувати можна без реєстрації)
 Трекер:    Зареєстрований   

Завантажити / скачати фільм українською



відео для новачків



 Зареєстрований:   2021-04-09 22:27
 Розмір:   3.01 GB 
 Оцінка фільму:   10/10 (Голосів: 1)
   
Інші релізи
   Фокус Покус / Hocus Pocus (1993) [MP4, 640x] apvAltisimo  0 / 0   619 MB   2016-12-13 16:35 
   Фокус Покус / Hocus Pocus (1993) 720p Ukr/Eng | Sub Eng igor911  3 / 0   4.41 GB   2015-08-19 19:07 
   Фокус Покус / Hocus Pocus (1993) Ukr/Eng | Sub Eng robotron005  4 / 0   1.58 GB   2014-08-29 23:23 
Masanchick 
VIP


З нами з: 08.04.11
Востаннє: 15.04.21
Повідомлень: 1624

2021-04-08 20:28  
1 доріжка це від ufdub?
Anonymous 







2021-04-08 20:31  
Masanchick
ні. А вони теж озвучували?

Masanchick 
VIP


З нами з: 08.04.11
Востаннє: 15.04.21
Повідомлень: 1624

2021-04-08 20:32  
Anonymous
Та в них вже давно на сайті є, я тільки зараз побачив що на толоці релізу немає
https://ufdub.com/t/film/hocus-pocus/

Masanchick 
VIP


З нами з: 08.04.11
Востаннє: 15.04.21
Повідомлень: 1624

2021-04-09 01:07  
1 доріжка . Олександр Солодкий, Лідія Муращенко, Олена Борозенець, Володимир Паляниця, Катерина Буцька, Євген Локтіонов
Anonymous 







2021-04-09 22:27  
Додано багатоголосе закадрове озвучення UFDUB_TR
Ваш часовий пояс: GMT + 2 Години

Нова тема   Відповісти