Мовчання / Silence (2016) Remux 1080p Ukr/Eng | Sub Eng

Нові коментарі

Нова тема   Відповісти
Автор Повідомлення
sandman 
VIP


З нами з: 12.08.12
Востаннє: 10.04.21
Повідомлень: 448

2021-04-08 17:36  
Мовчання / Silence (2016) Remux 1080p Ukr/Eng | Sub Eng

Мовчання / Silence (2016) Remux 1080p Ukr/Eng | Sub Eng


Жанр: драма, історичний
Країна: США, Мексика, Тайвань



Кінокомпанія: Cappa Defina Productions, CatchPlay, Emmett/Furla/Oasis Films (EFO Films)
Режисер: Мартін Скорсезе
Актори: Ендрю Ґарфілд, Адам Драйвер, Ліам Нісон, Таданобу Асано, Кіаран Гайндс, Іссей Оґата, Шінья Цукамото, Йоші Оіда, Йоске Кубозука

Сюжет:
XVII століття, Японія. Двоє португальських священиків-єзуїтів Родрігес і Франциско Гаррпе приїхали в країну і подорожують нею. Вони переслідують дві мети: знайти свого наставника Феррейру і донести слова святого Євангелія японцям. Ще в Європі чоловіки розуміли, що це буде дуже складно, що вони будуть страждати і стануть жертвами насилля. Серце їм сказало поїхати в далеку країну – і вони це зробили. Але чи вийде у двох християн прищепити релігію азіатам, знайти свого наставника і, головне, вижити...


Тривалість: 02:41:09
Якість: Remux
Відео:
кодек:
розмір кадру: 1920 х 1080
бітрейт: 28,7 Мб/с

Аудіо # 1:
мова: українська
переклад: професійний дубльований
кодек: 2.0
бітрейт: 192 кб/с

Аудіо # 2:
мова: англійська
переклад: оригінал
кодек: -HD MA 5.1
бітрейт: 2970 кб/с

Аудіо # 3:
мова: англійська
переклад: оригінал
кодек: 5.1
бітрейт: 640 кб/с

Субтитри #1, #2 (Full, SDH):
мова: англійська
тип: програмні (м'які)
формат: *.srt

Збережено оригінальні розділи, як на Blu-ray
Info
General
Unique ID : 38489511608769718678116758068748896298 (0x1CF4CF6F81E1016D5FC59F236508482A)
Complete name : /Users/yura/Movies/Silence (2016) BDRMX1080p.
Format :
Format version : Version 4
File size : 36.6 GiB
Duration : 2 h 41 min
Overall bit rate mode : Variable
Overall bit rate : 32.5 Mb/s
Movie name : Silence (2016)
Encoded date : UTC 2021-04-07 18:26:02
Writing application : v56.0.0 ('Strasbourg / St. Denis') 64-bit
Writing library : libebml v1.4.2 + v1.6.4
Cover : Yes
Attachments : cover.jpg

Video
ID : 1
Format : AVC
Format/Info : Advanced Video Codec
Format profile : [email protected]
Format settings : CABAC / 4 Ref Frames
Format settings, CABAC : Yes
Format settings, Reference frames : 4 frames
Codec ID : V_MPEG4/ISO/AVC
Duration : 2 h 41 min
Bit rate mode : Variable
Bit rate : 28.7 Mb/s
Maximum bit rate : 35.0 Mb/s
Width : 1 920 pixels
Height : 1 080 pixels
Display aspect ratio : 16:9
Frame rate mode : Constant
Frame rate : 23.976 (24000/1001) FPS
Color space : YUV
Chroma subsampling : 4:2:0
Bit depth : 8 bits
Scan type : Progressive
Bits/(Pixel*Frame) : 0.577
Stream size : 32.3 GiB (88%)
Language : English
Default : Yes
Forced : No

Audio #1
ID : 2
Format : AC-3
Format/Info : Audio Coding 3
Commercial name : Dolby Digital
Codec ID : A_AC3
Duration : 2 h 41 min
Bit rate mode : Constant
Bit rate : 192 kb/s
Channel(s) : 2 channels
Channel layout : L R
Sampling rate : 48.0 kHz
Frame rate : 31.250 FPS (1536 SPF)
Compression mode : Lossy
Stream size : 221 MiB (1%)
Title : DUB [Megogo] [email protected]
Language : Ukrainian
Service kind : Complete Main
Default : Yes
Forced : Yes

Audio #2
ID : 3
Format : XLL
Format/Info : Digital Theater Systems
Commercial name : -HD Master Audio
Codec ID : A_DTS
Duration : 2 h 41 min
Bit rate mode : Variable
Bit rate : 2 970 kb/s
Channel(s) : 6 channels
Channel layout : C L R Ls Rs LFE
Sampling rate : 48.0 kHz
Frame rate : 93.750 FPS (512 SPF)
Bit depth : 24 bits
Compression mode : Lossless
Stream size : 3.34 GiB (9%)
Title : Original -HD MA [email protected]
Language : English
Default : No
Forced : No

Audio #3
ID : 4
Format : AC-3
Format/Info : Audio Coding 3
Commercial name : Dolby Digital
Codec ID : A_AC3
Duration : 2 h 41 min
Bit rate mode : Constant
Bit rate : 640 kb/s
Channel(s) : 6 channels
Channel layout : L R C LFE Ls Rs
Sampling rate : 48.0 kHz
Frame rate : 31.250 FPS (1536 SPF)
Compression mode : Lossy
Stream size : 738 MiB (2%)
Title : Original [email protected]
Language : English
Service kind : Complete Main
Default : No
Forced : No

Text #1
ID : 5
Format : UTF-8
Codec ID : S_TEXT/UTF8
Codec ID/Info : UTF-8 Plain Text
Duration : 2 h 31 min
Bit rate : 41 b/s
Count of elements : 1480
Stream size : 46.4 KiB (0%)
Title : EngFull
Language : English
Default : No
Forced : No

Text #2
ID : 6
Format : UTF-8
Codec ID : S_TEXT/UTF8
Codec ID/Info : UTF-8 Plain Text
Duration : 2 h 33 min
Bit rate : 47 b/s
Count of elements : 1787
Stream size : 53.9 KiB (0%)
Title : EngSHD
Language : English
Default : No
Forced : No

Menu
00:00:00.000 : Chapter 1
00:12:59.903 : Chapter 2
00:22:15.791 : Chapter 3
00:33:21.708 : Chapter 4
00:41:58.974 : Chapter 5
00:51:14.028 : Chapter 6
01:03:15.291 : Chapter 7
01:10:57.127 : Chapter 8
01:22:59.099 : Chapter 9
01:30:19.912 : Chapter 10
01:41:49.645 : Chapter 11
01:47:57.011 : Chapter 12
01:54:46.546 : Chapter 13
02:10:37.162 : Chapter 14
02:19:11.049 : Chapter 15
02:34:22.378 : Chapter 16
Скріншоти





За придбану українську доріжку дякуємо панові aalleexx85

Джерело: &


 Трекер:    Зареєстрований   

Завантажити / скачати фільм українською



відео для новачків



 Зареєстрований:   2021-04-08 17:36
 Розмір:   36.6 GB 
 Оцінка фільму:   5.5/10 (Голосів: 2)
   
Інші релізи
   Мовчання / Silence (2016) Ukr/Eng Covenant  2 / 0   2.19 GB   2017-05-18 10:10 
   Мовчання / Silence (2016) 720p Ukr/Eng | Sub Eng 11FrYkT  5 / 0   6.21 GB   2017-05-17 20:59 
   Мовчання / Silence (2016) AVC Ukr/Eng | Sub Eng 11FrYkT  6 / 0   2.34 GB   2017-05-17 19:19 
   Мовчання / Silence (2016) Gelios  3 / 0   1.45 GB   2017-05-17 15:04 
   Мовчання / Silence (2016) 1080p Ukr/Eng | Sub Eng Electroz  3 / 0   13.3 GB   2017-05-17 00:06 
Ваш часовий пояс: GMT + 2 Години

Нова тема   Відповісти