Клівлендські полонянки / Cleveland Abduction (2015) [Amazon] 1080p Ukr/Eng | Sub Eng

Нові коментарі

Нова тема   Відповісти
Автор Повідомлення
sandman 
VIP


З нами з: 12.08.12
Востаннє: 16.04.21
Повідомлень: 450

2021-04-08 16:58  
Клівлендські полонянки / Cleveland Abduction (2015) [Amazon] 1080p Ukr/Eng | Sub Eng

Клівлендські полонянки / Cleveland Abduction (2015) [Amazon] 1080p Ukr/Eng | Sub Eng


Жанр: Біографічний, кримінальний, драма
Країна: США



Кінокомпанія: Sony Pictures Television, Woodridge Productions
Режисер: Алекс Калімніос / Alex Kalymnios
Актори: Терін Менінґ / Taryn Manning, Реймонд Круз / Raymond Cruz, Кеті Саріф / Katie Sarife, Саманта Дроук / Samantha Droke, Пем Ґрір / Pam Grier, Джо Мортон / Joe Morton, Джейн Мовдер / Jane Mowder, Ґрейс Ренсом / Grace Ransom, Крістіна Коф / Kristina Kopf та інші

Сюжет:
Матір-одиначку, що стала першою жертвою викрадача Аріеля Кастро, утримують силою в його будинку протягом 11 років. Там вона стає подругою і сестрою двох інших жінок, викраденим Кастро. Засновано на реальних подіях.


Тривалість: 01:27:23
Якість: [Amazon]
Відео:
кодек:
розмір кадру: 1920 х 1080
бітрейт: 6271 кб/с

Аудіо # 1:
мова: українська
переклад: багатоголосий закадровий
кодек: 2.0
бітрейт: 192 кб/с

Аудіо # 2:
мова: англійська
переклад: оригінал
кодек: EAC3 [Dolby Digital Plus] 5.1
бітрейт: 640 кб/с

Субтитри (повні):
мова: англійська
тип: програмні (м'які)
формат: *.srt
Info
General
Unique ID : 253637360508705166329425610209413814080 (0xBED0C75CF0B3D9BDF204ACCC3D27D740)
Complete name : /Users/yura/Movies/Cleveland Abduction (2015) [AMZN]1080p.
Format :
Format version : Version 4
File size : 4.34 GiB
Duration : 1 h 27 min
Overall bit rate mode : Variable
Overall bit rate : 7 106 kb/s
Movie name : Cleveland Abduction (2015)
Encoded date : UTC 2021-04-08 06:54:48
Writing application : v56.0.0 ('Strasbourg / St. Denis') 64-bit
Writing library : libebml v1.4.2 + v1.6.4
Cover : Yes
Attachments : cover.jpg

Video
ID : 1
Format : AVC
Format/Info : Advanced Video Codec
Format profile : [email protected]
Format settings : CABAC / 4 Ref Frames
Format settings, CABAC : Yes
Format settings, Reference frames : 4 frames
Codec ID : V_MPEG4/ISO/AVC
Duration : 1 h 27 min
Bit rate mode : Variable
Bit rate : 6 271 kb/s
Maximum bit rate : 15.0 Mb/s
Width : 1 920 pixels
Height : 1 080 pixels
Display aspect ratio : 16:9
Frame rate mode : Constant
Frame rate : 23.976 (24000/1001) FPS
Color space : YUV
Chroma subsampling : 4:2:0
Bit depth : 8 bits
Scan type : Progressive
Bits/(Pixel*Frame) : 0.126
Stream size : 3.83 GiB (88%)
Default : Yes
Forced : No
Color range : Limited
Color primaries : BT.709
Transfer characteristics : BT.709
Matrix coefficients : BT.709

Audio #1
ID : 2
Format : AC-3
Format/Info : Audio Coding 3
Commercial name : Dolby Digital
Codec ID : A_AC3
Duration : 1 h 27 min
Bit rate mode : Constant
Bit rate : 192 kb/s
Channel(s) : 2 channels
Channel layout : L R
Sampling rate : 44.1 kHz
Frame rate : 28.711 FPS (1536 SPF)
Compression mode : Lossy
Stream size : 120 MiB (3%)
Title : DUB [iTunes] [email protected]
Language : Ukrainian
Service kind : Complete Main
Default : Yes
Forced : Yes

Audio #2
ID : 3
Format : E-AC-3
Format/Info : Enhanced AC-3
Commercial name : Dolby Digital Plus
Codec ID : A_EAC3
Duration : 1 h 27 min
Bit rate mode : Constant
Bit rate : 640 kb/s
Channel(s) : 6 channels
Channel layout : L R C LFE Ls Rs
Sampling rate : 48.0 kHz
Frame rate : 31.250 FPS (1536 SPF)
Compression mode : Lossy
Stream size : 400 MiB (9%)
Title : Original EAC3 [email protected]
Language : English
Service kind : Complete Main
Default : No
Forced : No

Text
ID : 4
Format : UTF-8
Codec ID : S_TEXT/UTF8
Codec ID/Info : UTF-8 Plain Text
Duration : 1 h 27 min
Bit rate : 54 b/s
Count of elements : 1298
Stream size : 34.9 KiB (0%)
Title : EngFull
Language : English
Default : No
Forced : No
Скріншоти





За український звук дякуємо панові Vasua95

Джерело: &


 Трекер:    Зареєстрований   

Завантажити / скачати фільм українською



відео для новачків



 Зареєстрований:   2021-04-08 16:58
 Розмір:   4.34 GB 
 Оцінка фільму:   -/10 (Голосів: 0)
   
Ваш часовий пояс: GMT + 2 Години

Нова тема   Відповісти