Чужа земля / Outland (1981) 1080p Ukr/ Eng | Sub Ukr/Eng

Нові коментарі

Нова тема   Відповісти
Автор Повідомлення
kryk-v.ya. 
Попереджень: 1
Попереджень: 1 


З нами з: 14.02.14
Востаннє: 15.04.21
Повідомлень: 2620

2021-04-08 15:44  
Чужа земля / Outland (1981) 1080p Ukr/ Eng | Sub Ukr/Eng

Чужа земля / Outland (1981) 1080p Ukr/ Eng | Sub Ukr/Eng


Жанр: фантастика, кримінальний, екшн
Країна: США



Кінокомпанія: Outland Productions, The Ladd Company
Режисер: Пітер Хаямс
Актори: Шон Коннері, Пітер Бойл, Френсіс Стернхаґен, Джеймс Сайкінґ, Кіка Маркам, Кларк Пітерс, Стівен Беркофф, Джон Ратценберґер, Ніколас Барнс, Меннінґ Редвуд

Сюжет:
Найвіддаленіший супутник Юпітера. Величезна брила вулканічного хаосу. На його поверхні височіє гірничодобувна колонія, начинена найсучаснішою технікою. Населення колонії складається з людей, що втекли від цивілізації, і невдах,що тинялись колись брудними вуличками якого-небудь міста.
Тут навіть повітря просочене насильством. На цю землю майбутнього прибуває наш герой...


Тривалість: 01:49:17
Якість: 1080p
Відео:
кодек:
розмір кадру: 1920 х 800
бітрейт: 9141 кб/с

Аудіо # 1:
мова: українська
переклад: одноголосий закадровий | Slava Radyk
кодек: 5.1
бітрейт: 640 кб/с
примітка: доріжка отримана шляхом накладання чистого голосу на центральний канал декодованого HD MA.

Аудіо # 2:
мова: англійська
переклад: оригінал
кодек: 5.1
бітрейт: 1509 кб/с

Субтитри:
мова: українська
тип: програмні (м'які) | iTunes
формат: *.srt

Субтитри:
мова: англійська
тип: програмні (м'які)
формат: *.srt
Info
General
Unique ID : 148011276174538806614385591167872898641 (0x6F59EF54E53A5C5CC5B269033D2F9651)
Complete name : D:\LOUD\Outland (1981) 1080p [Hurtom].
Format :
Format version : Version 4
File size : 8.61 GiB
Duration : 1 h 49 min
Overall bit rate : 11.3 Mb/s
Encoded date : UTC 2021-04-08 11:36:39
Writing application : v25.0.0 ('Prog Noir') 64-bit
Writing library : libebml v1.3.6 + v1.4.9
Cover : Yes
Attachments : cover.png

Video
ID : 1
Format : AVC
Format/Info : Advanced Video Codec
Format profile : [email protected]
Format settings : CABAC / 5 Ref Frames
Format settings, CABAC : Yes
Format settings, Reference : 5 frames
Codec ID : V_MPEG4/ISO/AVC
Duration : 1 h 49 min
Bit rate : 9 141 kb/s
Width : 1 920 pixels
Height : 800 pixels
Display aspect ratio : 2.40:1
Frame rate mode : Constant
Frame rate : 23.976 (24000/1001) FPS
Color space : YUV
Chroma subsampling : 4:2:0
Bit depth : 8 bits
Scan type : Progressive
Bits/(Pixel*Frame) : 0.248
Stream size : 6.97 GiB (81%)
Writing library : core 142 r2491 24e4fed
Encoding settings : cabac=1 / ref=5 / deblock=1:-3:-3 / analyse=0x3:0x113 / me=umh / subme=11 / psy=1 / psy_rd=1.00:0.00 / mixed_ref=1 / me_range=32 / chroma_me=1 / trellis=2 / 8x8dct=1 / cqm=0 / deadzone=21,11 / fast_pskip=0 / chroma_qp_offset=-2 / threads=12 / lookahead_threads=1 / sliced_threads=0 / nr=0 / decimate=1 / interlaced=0 / bluray_compat=0 / constrained_intra=0 / bframes=5 / b_pyramid=2 / b_adapt=2 / b_bias=0 / direct=3 / weightb=1 / open_gop=0 / weightp=2 / keyint=240 / keyint_min=23 / scenecut=40 / intra_refresh=0 / rc=2pass / mbtree=0 / bitrate=9141 / ratetol=2.0 / qcomp=0.60 / qpmin=0 / qpmax=69 / qpstep=4 / cplxblur=20.0 / qblur=0.5 / ip_ratio=1.40 / pb_ratio=1.30 / aq=2:1.00
Language : English
Default : Yes
Forced : No

Audio #1
ID : 2
Format : AC-3
Format/Info : Audio Coding 3
Commercial name : Dolby Digital
Codec ID : A_AC3
Duration : 1 h 49 min
Bit rate mode : Constant
Bit rate : 640 kb/s
Channel(s) : 6 channels
Channel layout : L R C LFE Ls Rs
Sampling rate : 48.0 kHz
Frame rate : 31.250 FPS (1536 SPF)
Compression mode : Lossy
Stream size : 500 MiB (6%)
Title : OV (Slava Radyk)
Language : Ukrainian
Service kind : Complete Main
Default : Yes
Forced : No

Audio #2
ID : 3
Format :
Format/Info : Digital Theater Systems
Codec ID : A_DTS
Duration : 1 h 49 min
Bit rate mode : Constant
Bit rate : 1 509 kb/s
Channel(s) : 6 channels
Channel layout : C L R Ls Rs LFE
Sampling rate : 48.0 kHz
Frame rate : 93.750 FPS (512 SPF)
Bit depth : 24 bits
Compression mode : Lossy
Stream size : 1.15 GiB (13%)
Title : Original
Language : English
Default : No
Forced : No

Text #1
ID : 4
Format : UTF-8
Codec ID : S_TEXT/UTF8
Codec ID/Info : UTF-8 Plain Text
Duration : 1 h 44 min
Bit rate : 56 b/s
Count of elements : 830
Stream size : 43.4 KiB (0%)
Title : full (iTunes)
Language : Ukrainian
Default : Yes
Forced : No

Text #2
ID : 5
Format : UTF-8
Codec ID : S_TEXT/UTF8
Codec ID/Info : UTF-8 Plain Text
Duration : 1 h 40 min
Bit rate : 36 b/s
Count of elements : 795
Stream size : 26.9 KiB (0%)
Title : full
Language : English
Default : No
Forced : No

Menu
00:00:00.000 : :Chapter 01
00:01:44.080 : :Chapter 02
00:03:48.920 : :Chapter 03
00:07:35.920 : :Chapter 04
00:10:19.400 : :Chapter 05
00:14:07.520 : :Chapter 06
00:17:02.560 : :Chapter 07
00:19:51.360 : :Chapter 08
00:23:17.200 : :Chapter 09
00:27:54.800 : :Chapter 10
00:31:42.440 : :Chapter 11
00:33:48.720 : :Chapter 12
00:40:05.040 : :Chapter 13
00:44:08.200 : :Chapter 14
00:46:15.320 : :Chapter 15
00:52:39.160 : :Chapter 16
00:56:53.200 : :Chapter 17
00:58:11.440 : :Chapter 18
01:00:36.680 : :Chapter 19
01:02:27.640 : :Chapter 20
01:06:26.640 : :Chapter 21
01:11:30.400 : :Chapter 22
01:16:11.000 : :Chapter 23
01:22:59.800 : :Chapter 24
01:25:33.320 : :Chapter 25
01:29:58.000 : :Chapter 26
01:32:24.760 : :Chapter 27
01:35:25.800 : :Chapter 28
01:38:50.360 : :Chapter 29
01:40:18.400 : :Chapter 30
01:42:05.840 : :Chapter 31


Джерело: &
Особиста оцінка: 8 - мені сподобалося

Велика подяка за озвучення і чистий голос пану Slava Radyk.


Авторський реліз (завантажувати можна без реєстрації)
 Трекер:    Зареєстрований   

Завантажити / скачати фільм українською



відео для новачків



 Зареєстрований:   2021-04-08 15:44
 Розмір:   8.61 GB 
 Оцінка фільму:   10/10 (Голосів: 4)
   
Інші релізи
   Чужа земля / Outland (1981) Ukr/ Eng | Sub Ukr/Eng радик  8 / 0   3.43 GB   2021-04-07 20:41 
   Чужа земля / Outland (1981) 720p Eng | Sub Ukr/Eng legos25  1 / 0   5.35 GB   2017-10-26 00:06 
Ваш часовий пояс: GMT + 2 Години

Нова тема   Відповісти