Сім'янин / Гріфіни (Сезон 19, Серії 10 з 20) / Family Guy (Season 19, Episodes 10 of 20) (2020-2021) 1080p Ukr/Eng

Нові коментарі

Нова тема   Відповісти
Останній раз роздавалося fong (2021-04-17)
Автор Повідомлення
simpsonsua 
VIP


З нами з: 13.03.18
Востаннє: 10.04.21
Повідомлень: 357

2021-04-08 14:57  
Сім'янин / Гріфіни (Сезон 19, Серії 10 з 20) / Family Guy (Season 19, Episodes 10 of 20) (2020-2021) 1080p Ukr/Eng


Сім'янин / Гріфіни (Сезон 19, Серії 10 з 20) / Family Guy (Season 19, Episodes 10 of 20) (2020-2021) 1080p Ukr/Eng


Якщо вам сподобалося озвучення мультсеріалу,
то ви можете підтримати нас за посиланням
ТИЦЬ


Жанр: анімація, комедія, пародія, ситком
Країна: США



Кінокомпанія: Fuzzy Door Productions, Fox Television Animation, 20th Century Fox Television / Fox
Режисер: Сет МакФарлейн та інші.
Актори/ролі озвучують: Сет МакФарлейн, Алекс Борштейн, Сет Грін, Міла Куніс, Майк Генрі та інші.

Сюжет:
"Сім'янин" ("Гріфіни") - американський комедійний мультсеріал про життя звичайної американської родини, що проживає в Куахозі, вигаданому передмісті штату Провіденс, столиці Род-Айленда.
Серіал носить в собі елементи сатири, в якій висміюються недоліки американської дійсності, в тому числі зовнішня і внутрішня політика США, расова дискримінація та інші проблеми.


Перекладено та озвучено студією сайту simpsonsua.tv


Тривалість: 1 серія: 21 хв (цілком серій: 10/20)
Перелік серій

01. Перше слово Стьюї
02. Талановитий містер Стьюї
03. Хлопці та білки
04. Країна вставок
05. Мафіяни́н
06. Весілля Меґ
07. Вайлд Вест
08. Пет Потакіт
09. Вперше без Л.
10. Фекальні питання
11. —
12. —
13. —
14. —
15. —
16. —
17. —
18. —
19. —
20. —
Якість: 1080p
Відео:
кодек:
розмір кадру: 1920 х 1080
бітрейт: ~ 1300 кб/с

Аудіо # 1:
мова: українська | "simpsonsua.tv"
озвучення: професійне багатоголосе закадрове
кодек: 5.1
бітрейт: 448 кб/с

Аудіо # 2:
мова: англійська
переклад: оригінал
кодек: E- 5.1
бітрейт: 256 kb/s

Info
Код:
Format                                   :
Format version                           : Version 4
File size                                : 319 MiB
Duration                                 : 21 min 33 s
Overall bit rate                         : 2 066 kb/s
Movie name                               : Сім'янин / Гріфіни / Family Guy - S19E01 (2020) 1080p [Ukr.Eng] [simpsonsua.tv]
Encoded date                             : UTC 2021-04-08 11:23:51
Writing application                      : v50.0.0 ('Awakenings') 64-bit
Writing library                          : libebml v1.4.0 + v1.6.2
Cover                                    : Yes
Attachments                              : cover.png

Video
ID                                       : 1
Format                                   : AVC
Format/Info                              : Advanced Video Codec
Format profile                           : [email protected]
Format settings                          : CABAC / 4 Ref Frames
Format settings, CABAC                   : Yes
Format settings, Reference frames        : 4 frames
Codec ID                                 : V_MPEG4/ISO/AVC
Duration                                 : 21 min 33 s
Bit rate                                 : 1 342 kb/s
Width                                    : 1 920 pixels
Height                                   : 1 080 pixels
Display aspect ratio                     : 16:9
Frame rate mode                          : Constant
Frame rate                               : 23.976 (24000/1001) FPS
Color space                              : YUV
Chroma subsampling                       : 4:2:0
Bit depth                                : 8 bits
Scan type                                : Progressive
Bits/(Pixel*Frame)                       : 0.027
Stream size                              : 207 MiB (65%)
Language                                 : English
Default                                  : Yes
Forced                                   : No

Audio #1
ID                                       : 2
Format                                   : AC-3
Format/Info                              : Audio Coding 3
Commercial name                          : Dolby Digital
Codec ID                                 : A_AC3
Duration                                 : 21 min 33 s
Bit rate mode                            : Constant
Bit rate                                 : 448 kb/s
Channel(s)                               : 6 channels
Channel layout                           : L R C LFE Ls Rs
Sampling rate                            : 48.0 kHz
Frame rate                               : 31.250 FPS (1536 SPF)
Compression mode                         : Lossy
Stream size                              : 69.1 MiB (22%)
Title                                    : simpsonsua.tv
Language                                 : Ukrainian
Service kind                             : Complete Main
Default                                  : Yes
Forced                                   : Yes

Audio #2
ID                                       : 3
Format                                   : E-AC-3
Format/Info                              : Enhanced AC-3
Commercial name                          : Dolby Digital Plus
Codec ID                                 : A_EAC3
Duration                                 : 21 min 33 s
Bit rate mode                            : Constant
Bit rate                                 : 256 kb/s
Channel(s)                               : 6 channels
Channel layout                           : L R C LFE Ls Rs
Sampling rate                            : 48.0 kHz
Frame rate                               : 31.250 FPS (1536 SPF)
Compression mode                         : Lossy
Stream size                              : 39.5 MiB (12%)
Title                                    : Original
Language                                 : English
Service kind                             : Complete Main
Default                                  : No
Forced                                   : No
Скріншоти:


Озвучено студією сайту:


Авторський реліз (завантажувати можна без реєстрації)
 Трекер:    Зареєстрований   

Завантажити / скачати мультфільм українською



відео для новачків



 Зареєстрований:   2021-04-08 14:57
 Розмір:   3.35 GB 
 Оцінка мультсеріалу:   10/10 (Голосів: 5)
   
Ваш часовий пояс: GMT + 2 Години

Нова тема   Відповісти