Снігобур (Сезон 2) / Snowpiercer (Season 2) (2021) 1080p Ukr/Eng | Sub Eng

Нові коментарі

Нова тема   Відповісти
Автор Повідомлення
wuzicka 
Свій


З нами з: 08.03.10
Востаннє: 19.04.21
Повідомлень: 110

2021-04-08 14:37  
Снігобур (Сезон 2) / Snowpiercer (Season 2) (2021) 1080p Ukr/Eng | Sub Eng

Снігобур (Сезон 2) / Snowpiercer (Season 2) (2021) 1080p Ukr/Eng | Sub Eng


Жанр: драма, фантастика
Країна: США



Кінокомпанія: CJ Entertainment, Studio T, Tomorrow Studios
Режисер: Джош Фрідман, Грем Менсон
Актори: Дженніфер Коннеллі, Давід Діґґз, Мікі Самнер та інші

Сюжет:
Дія серіалу розгортається після техногенної катастрофи, через яку на Землі настав новий льодовиковий період. Залишки людства виживають всередині поїзда, що мчить по магістралі


Тривалість: 1 серія: ~ 46 хв (цілком серій: 10)
Перелік серій
01. The Time of Two Engines
02. Smolder to Life
03. A Great Odyssey
04. A Single Trade
05. Keep Hope Alive
06. Many Miles from Snowpiercer
07. Our Answer for Everything
08. The Eternal Engineer
09. The Show Must Go On
10. Into the White
Якість:
Відео:
кодек:
розмір кадру: 1920 х 1080
бітрейт: ~ 9 357 кб/с

Аудіо # 1:
мова: українська
переклад: багатоголосий закадровий [Dniprofilm]
кодек: 5.1
бітрейт: 384 кб/с

Аудіо # 2:
мова: англійська
переклад: оригінал
кодек: E- 5.1
бітрейт: 640 кб/с

Субтитри # 1 (на написи):
мова: українська
тип: програмні (м'які)
формат: *.srt

Субтитри # 2:
мова: англійська
тип: програмні (м'які)
формат: *.srt
Info
General
Unique ID : 138562544658865473275322452977891404528 (0x683E2CE68C92986601E322B0DB07EAF0)
Complete name : Snowpiercer. 2021. s02. 1080\Snowpiercer. 2021. s02e01. .1080p.
Format :
Format version : Version 4
File size : 3.35 GiB
Duration : 46 min 15 s
Overall bit rate : 10.4 Mb/s
Encoded date : UTC 2021-04-08 10:30:32
Writing application : v55.0.0 ('Waiting For Space') 64-bit
Writing library : libebml v1.4.2 + v1.6.4

Video
ID : 1
Format : AVC
Format/Info : Advanced Video Codec
Format profile : [email protected]
Format settings : CABAC / 4 Ref Frames
Format settings, CABAC : Yes
Format settings, ReFrames : 4 frames
Codec ID : V_MPEG4/ISO/AVC
Duration : 46 min 15 s
Bit rate mode : Constant
Bit rate : 9 357 kb/s
Nominal bit rate : 10 000 kb/s
Width : 1 920 pixels
Height : 1 080 pixels
Display aspect ratio : 16:9
Frame rate mode : Constant
Frame rate : 23.976 (24000/1001) FPS
Color space : YUV
Chroma subsampling : 4:2:0
Bit depth : 8 bits
Scan type : Progressive
Bits/(Pixel*Frame) : 0.188
Stream size : 3.02 GiB (90%)
Default : Yes
Forced : No
Color range : Limited
Color primaries : BT.709
Transfer characteristics : BT.709
Matrix coefficients : BT.709

Audio #1
ID : 2
Format : AC-3
Format/Info : Audio Coding 3
Commercial name : Dolby Digital
Codec ID : A_AC3
Duration : 46 min 15 s
Bit rate mode : Constant
Bit rate : 384 kb/s
Channel(s) : 6 channels
Channel layout : L R C LFE Ls Rs
Sampling rate : 48.0 kHz
Frame rate : 31.250 FPS (1536 SPF)
Bit depth : 16 bits
Compression mode : Lossy
Stream size : 127 MiB (4%)
Title : DD 5.1 @ 384 kbps - DniproFilm
Language : Ukrainian
Service kind : Complete Main
Default : Yes
Forced : No

Audio #2
ID : 3
Format : E-AC-3
Format/Info : Enhanced AC-3
Commercial name : Dolby Digital Plus
Codec ID : A_EAC3
Duration : 46 min 15 s
Bit rate mode : Constant
Bit rate : 640 kb/s
Channel(s) : 6 channels
Channel layout : L R C LFE Ls Rs
Sampling rate : 48.0 kHz
Frame rate : 31.250 FPS (1536 SPF)
Compression mode : Lossy
Stream size : 212 MiB (6%)
Title : E- @ 640 kbps - Original
Language : English
Service kind : Complete Main
Default : No
Forced : No

Text #1
ID : 4
Format : UTF-8
Codec ID : S_TEXT/UTF8
Codec ID/Info : UTF-8 Plain Text
Duration : 26 min 36 s
Bit rate : 1 b/s
Count of elements : 6
Stream size : 254 Bytes (0%)
Title : Text only
Language : Ukrainian
Default : Yes
Forced : Yes

Text #2
ID : 5
Format : UTF-8
Codec ID : S_TEXT/UTF8
Codec ID/Info : UTF-8 Plain Text
Duration : 45 min 25 s
Bit rate : 66 b/s
Count of elements : 823
Stream size : 22.3 KiB (0%)
Language : English
Default : No
Forced : No

Text #3
ID : 6
Format : UTF-8
Codec ID : S_TEXT/UTF8
Codec ID/Info : UTF-8 Plain Text
Duration : 45 min 28 s
Bit rate : 74 b/s
Count of elements : 937
Stream size : 24.9 KiB (0%)
Title : SDH
Language : English
Default : No
Forced : No
Скріншоти



Джерело:
Особиста оцінка: 8 - мені сподобалося


Авторський реліз (завантажувати можна без реєстрації)
 Трекер:    Зареєстрований   

Завантажити / скачати серіал українською



відео для новачків



 Зареєстрований:   2021-04-08 14:37
 Розмір:   36.24 GB 
 Оцінка серіалу:   6.3/10 (Голосів: 3)
   
iRaise 
Свій


З нами з: 25.12.19
Востаннє: 19.04.21
Повідомлень: 53

2021-04-14 19:14  
wuzicka, дякую за реліз!
Другий сезон мені навіть більше сподобався за перший! Гарний серіал.
Очікуємо на третій сезон.Happy

Ваш часовий пояс: GMT + 2 Години

Нова тема   Відповісти