Лукас / Lukas (2018) 1080p Ukr/Fre

Нові коментарі

Нова тема   Відповісти
Автор Повідомлення
Anonymous 







2021-04-08 14:17  
Лукас / Lukas (2018) 1080p Ukr/Fre

Лукас / Lukas (2018) 1080p Ukr/Fre
Blu-ray


Жанр: екшн, драма, трилер
Країна: Франція, Бельгія



Кінокомпанія: Labyrinthe Films, Atchafalaya Films, Umedia
Режисер: Жюльєн Леклерк
Актори: Жан-Клод Ван Дамм, Самі Буажіла, Свева Альвітіл, Сем Лаувейк, Кевін Янссенс, Кааріс, Аліса версія, Дімітрі Тівайос, Дамьен Буффар, Марія Бортот, Ману Керстінг, Кевін Ван Доорслаер, Хлое Анрі, Кетрін Хадука

Сюжет:
Літній охоронець з нічного клубу Лукас (Жан-Клод Ван Дамм) наодинці виховує восьмирічну дочку. Коли його заарештовують за бійку з клієнтом, дівчинку забирають органи опіки. Щоб повернути її, Лукас погоджується виконати завдання Інтерполу і проникнути в небезпечну банду фальшивомонетників ...


Тривалість: 01:26:43
Якість:
Відео:
кодек:
розмір кадру: 1920 х 804
бітрейт: 9277 кб/с

Аудіо # 1:
мова: українська
переклад: багатоголосий закадровий
кодек: 2.0
бітрейт: 192 кб/с

Аудіо # 2:
мова: французька
переклад: оригінал
кодек: 5.1
бітрейт: 640 кб/с

Джерело озвучення:

За українську доріжку дякую п.: Богдан, Drommer, banzaycs
За постер дякую пану -Star-Lord-
Info
Код:
General
Unique ID                                : 49336464738953055802879317875145476603 (0x251DDB83C0000A10D39F633D3D5A89FB)
Complete name                            : Lukas (2018) 1080p [Ukr_Fre] [Hurtom].
Format                                   :
Format version                           : Version 4
File size                                : 6.12 GiB
Duration                                 : 1 h 26 min
Overall bit rate                         : 10.1 Mb/s
Movie name                               : Лукас (2018)
Encoded date                             : UTC 2021-04-08 02:24:11
Writing application                      : v55.0.0 ('Waiting For Space') 64-bit
Writing library                          : libebml v1.4.2 + v1.6.4
Cover                                    : Yes
Attachments                              : cover.jpg

Video
ID                                       : 1
Format                                   : AVC
Format/Info                              : Advanced Video Codec
Format profile                           : [email protected]
Format settings                          : CABAC / 5 Ref Frames
Format settings, CABAC                   : Yes
Format settings, Reference frames        : 5 frames
Codec ID                                 : V_MPEG4/ISO/AVC
Duration                                 : 1 h 26 min
Bit rate                                 : 9 277 kb/s
Width                                    : 1 920 pixels
Height                                   : 804 pixels
Display aspect ratio                     : 2.40:1
Frame rate mode                          : Constant
Frame rate                               : 23.976 (24000/1001) FPS
Color space                              : YUV
Chroma subsampling                       : 4:2:0
Bit depth                                : 8 bits
Scan type                                : Progressive
Bits/(Pixel*Frame)                       : 0.251
Stream size                              : 5.62 GiB (92%)
Writing library                          : core 155 r2867+82 a249126 t_mod_Custom_2 [[email protected] X86_64]
Encoding settings                        : cabac=1 / ref=5 / deblock=1:-3:-3 / analyse=0x3:0x133 / me=umh / subme=10 / psy=1 / fade_compensate=0.00 / psy_rd=1.05:0.00 / mixed_ref=1 / me_range=64 / chroma_me=1 / trellis=2 / 8x8dct=1 / cqm=0 / deadzone=21,11 / fast_pskip=0 / chroma_qp_offset=-2 / threads=24 / lookahead_threads=2 / sliced_threads=0 / nr=0 / decimate=0 / interlaced=0 / bluray_compat=0 / constrained_intra=0 / fgo=0 / bframes=6 / b_pyramid=2 / b_adapt=2 / b_bias=0 / direct=3 / weightb=1 / open_gop=0 / weightp=2 / keyint=250 / keyint_min=23 / scenecut=40 / intra_refresh=0 / rc_lookahead=60 / rc=crf / mbtree=0 / crf=16.4000 / qcomp=0.60 / qpmin=0:0:0 / qpmax=69:69:69 / qpstep=4 / vbv_maxrate=62500 / vbv_bufsize=78125 / crf_max=0.0 / nal_hrd=none / filler=0 / ip_ratio=1.20 / pb_ratio=1.15 / aq=3:0.85 / aq-sensitivity=10.00 / aq-factor=1.00:1.00:1.00 / aq2=0 / aq3=0 / zones=117595,124747,b=0.7
Language                                 : English
Default                                  : Yes
Forced                                   : No

Audio #1
ID                                       : 2
Format                                   : AC-3
Format/Info                              : Audio Coding 3
Commercial name                          : Dolby Digital
Codec ID                                 : A_AC3
Duration                                 : 1 h 26 min
Bit rate mode                            : Constant
Bit rate                                 : 192 kb/s
Channel(s)                               : 2 channels
Channel layout                           : L R
Sampling rate                            : 48.0 kHz
Frame rate                               : 31.250 FPS (1536 SPF)
Compression mode                         : Lossy
Stream size                              : 119 MiB (2%)
Language                                 : Ukrainian
Service kind                             : Complete Main
Default                                  : Yes
Forced                                   : Yes

Audio #2
ID                                       : 3
Format                                   : AC-3
Format/Info                              : Audio Coding 3
Commercial name                          : Dolby Digital
Codec ID                                 : A_AC3
Duration                                 : 1 h 26 min
Bit rate mode                            : Constant
Bit rate                                 : 640 kb/s
Channel(s)                               : 6 channels
Channel layout                           : L R C LFE Ls Rs
Sampling rate                            : 48.0 kHz
Frame rate                               : 31.250 FPS (1536 SPF)
Compression mode                         : Lossy
Stream size                              : 397 MiB (6%)
Language                                 : French
Service kind                             : Complete Main
Default                                  : No
Forced                                   : No

Menu
00:00:00.000                             : en:00:00:00.000
00:10:25.583                             : en:00:10:25.583
00:20:54.879                             : en:00:20:54.879
00:31:36.520                             : en:00:31:36.520
00:44:58.154                             : en:00:44:58.154
00:59:50.587                             : en:00:59:50.587
01:12:07.323                             : en:01:12:07.323
01:21:47.694                             : en:01:21:47.694

Скріншоти





Джерело:


 Трекер:    Зареєстрований   

Завантажити / скачати фільм українською



відео для новачків



 Зареєстрований:   2021-04-08 14:17
 Розмір:   6.12 GB 
 Оцінка фільму:   -/10 (Голосів: 0)
   
Інші релізи
   Лукас / Lukas (2018) 720p Ukr/Fre banzaycs  2 / 2   4.24 GB   2021-04-07 20:54 
   Лукас / Lukas (2018) AVC Ukr/Eng Arsenfpu  11 / 0   1.32 GB   2021-04-07 18:01 
Ваш часовий пояс: GMT + 2 Години

Нова тема   Відповісти