Сквот32 (2019) 1080p

Нові коментарі

Нова тема   Відповісти
Автор Повідомлення
Anonymous 







2021-04-07 21:37  
Сквот32 (2019) 1080p

Сквот32 (2019) 1080p


Жанр: драма
Країна: Україна



Кінокомпанія: Garnet International Media Group
Режисер: Саша Лідаговський
Актори: Анна Адамович, Олександр Богачук, Римаїда Онадська, Сергій Лузановський, Ігор Левенець, Іван Бліндар, Сандра Самбо, Бахірка Катерина, Владислав Партика, В'ячеслав Семенченко

Сюжет:
Сучасна історія Пітера Пена про пошук шляху до дорослого життя та усвідомлення власного стилю та талантів. Ліза працює фотографом у паспортному центрі. Одного разу вона потрапляє до товариства вільних і талановитих мрійників: творців, танцюристів, музикантів, які живуть у Сквоті - напівзруйнованому спустошеному будинку. Вісімдесятирічна Фаїна - єдиний законний мешканець будинку і єдина перешкода для забудовника, який планує зруйнувати увесь квартал, а з ним і Сквот. Лізу причаровує енергія, свобода і творчість товариства. Вони борються за свій спосіб життя, створюють та змінюють навколишній світ. Ліза сама змінюється, вона починає шукати своє місце у світі, розвиває своє бачення та стиль. Завдяки Сквоту Лізу помічають як фотографа, а її світ і можливості розширюються.


Тривалість: 01:35:18
Якість:
Відео:
кодек:
розмір кадру: 1920 х 1080
бітрейт: 4562 кб/с

Аудіо:
мова: українська
переклад: оригінал
кодек: 2.0
бітрейт: 256 кб/с

Субтитри:
мова: українська
тип: вбудовані (жорсткі) на кацапську мову
Info
Код:
General
Unique ID                                : 114563136629716717006831270860514729847 (0x56300EBAAAB546C48D5FEEAC47951F77)
Complete name                            : Сквот32 (2019) 1080p [Ukr] [Hurtom].
Format                                   :
Format version                           : Version 4
File size                                : 3.21 GiB
Duration                                 : 1 h 35 min
Overall bit rate mode                    : Variable
Overall bit rate                         : 4 820 kb/s
Movie name                               : Сквот32 (2019)
Encoded date                             : UTC 2021-04-07 18:22:11
Writing application                      : v55.0.0 ('Waiting For Space') 64-bit
Writing library                          : libebml v1.4.2 + v1.6.4
Cover                                    : Yes
Attachments                              : cover.jpg

Video
ID                                       : 1
Format                                   : AVC
Format/Info                              : Advanced Video Codec
Format profile                           : [email protected]
Format settings                          : CABAC / 1 Ref Frames
Format settings, CABAC                   : Yes
Format settings, Reference frames        : 1 frame
Codec ID                                 : V_MPEG4/ISO/AVC
Duration                                 : 1 h 35 min
Bit rate mode                            : Variable
Bit rate                                 : 4 562 kb/s
Maximum bit rate                         : 13.5 Mb/s
Width                                    : 1 920 pixels
Height                                   : 1 080 pixels
Display aspect ratio                     : 16:9
Frame rate mode                          : Constant
Frame rate                               : 25.000 FPS
Color space                              : YUV
Chroma subsampling                       : 4:2:0
Bit depth                                : 8 bits
Scan type                                : Progressive
Bits/(Pixel*Frame)                       : 0.088
Stream size                              : 3.04 GiB (95%)
Default                                  : Yes
Forced                                   : No

Audio
ID                                       : 2
Format                                   : LC
Format/Info                              : Advanced Audio Codec Low Complexity
Codec ID                                 : A_AAC-2
Duration                                 : 1 h 35 min
Bit rate                                 : 256 kb/s
Channel(s)                               : 2 channels
Channel layout                           : L R
Sampling rate                            : 44.1 kHz
Frame rate                               : 43.066 FPS (1024 SPF)
Compression mode                         : Lossy
Stream size                              : 175 MiB (5%)
Language                                 : Ukrainian
Default                                  : Yes
Forced                                   : Yes

Скріншоти





Джерело:


Золотий реліз (завантажене не впливає на рейтинг)
 Трекер:    Зареєстрований   

Завантажити / скачати український фільм



відео для новачків



 Зареєстрований:   2021-04-07 21:37
 Розмір:   3.21 GB 
 Оцінка фільму:   7/10 (Голосів: 6)
   
Ваш часовий пояс: GMT + 2 Години

Нова тема   Відповісти