Морська змова / Seaspiracy (2021)

Нові коментарі

Нова тема   Відповісти
Автор Повідомлення
killer2015 
VIP


З нами з: 30.01.15
Востаннє: 11.04.21
Повідомлень: 451

2021-04-05 11:36  
Морська змова / Seaspiracy (2021)

Морська змова / Seaspiracy (2021)


Жанр: документальне
Країна: США



Телеканал / кіностудія: Netflix
Режисер: Алі Тебрізі
Сюжет:
Режисер, який любить природу та океан, приймає рішення задокументувати шкоду, яку люди завдають морським тваринам, і викриває страшну корупцію світового рівня.


Тривалість: 01:29:38
Якість:
Відео:
кодек:
розмір кадру: 720 x 304
бітрейт: 1502 кб/с

Аудіо:
мова: українська
переклад: двоголосий закадровий | DniproFilm/HDRezka
бітрейт: 384 кб/с

Субтитри (форс):
мова: українська
тип: вбудовані (жорсткі) на надписи
МІ
General
Complete name : G:\Фільми\Seaspiracy.2021..400p.ukr.2.0_edit.avi
Format : AVI
Format/Info : Audio Video Interleave
File size : 1.19 GiB
Duration : 1 h 29 min
Overall bit rate : 1 897 kb/s

Video
ID : 0
Format : MPEG-4 Visual
Format profile : Advanced [email protected]
Format settings : BVOP2
Format settings, BVOP : 2
Format settings, QPel : No
Format settings, GMC : No warppoints
Format settings, Matrix : Default (MPEG)
Codec ID :
Codec ID/Hint :
Duration : 1 h 29 min
Bit rate : 1 502 kb/s
Width : 720 pixels
Height : 304 pixels
Display aspect ratio : 2.35:1
Frame rate : 23.976 (23976/1000) FPS
Color space : YUV
Chroma subsampling : 4:2:0
Bit depth : 8 bits
Scan type : Progressive
Compression mode : Lossy
Bits/(Pixel*Frame) : 0.286
Stream size : 963 MiB (79%)
Writing library : 1.2.1 (UTC 2008-12-04)

Audio
ID : 1
Format : AC-3
Format/Info : Audio Coding 3
Commercial name : Dolby Digital
Codec ID : 2000
Duration : 1 h 29 min
Bit rate mode : Constant
Bit rate : 384 kb/s
Channel(s) : 2 channels
Channel layout : L R
Sampling rate : 48.0 kHz
Frame rate : 31.250 FPS (1536 SPF)
Compression mode : Lossy
Stream size : 246 MiB (20%)
Alignment : Aligned on interleaves
Interleave, duration : 32 ms (0.77 video frame)
Service kind : Complete Main
Скріншоти





Джерело:
Особиста оцінка: 10 - без зайвих вагань рекомендую всім!


Авторський реліз (завантажувати можна без реєстрації)
 Трекер:    Зареєстрований   

Завантажити / скачати торрент



відео для новачків



 Зареєстрований:   2021-04-05 11:36
 Розмір:   1.19 GB 
 Оцінка:   8/10 (Голосів: 5)
   
killer2015 
VIP


З нами з: 30.01.15
Востаннє: 11.04.21
Повідомлень: 451

2021-04-05 11:36  

Maters 
Відео Гуртом - підтримка та поширення
Відео Гуртом - підтримка та поширення


З нами з: 27.03.12
Востаннє: 11.04.21
Повідомлень: 2571

2021-04-05 19:14  
killer2015 написано:
який рухається любов'ю до океану

рухається? краще "керується", а ще краще перефразувати, типу "який любить природу та океан".

Ваш часовий пояс: GMT + 2 Години

Нова тема   Відповісти