Планета самотніх 3 / Planeta Singli 3 (2019) AVC Ukr/Pol

Нові коментарі

Нова тема   Відповісти
Автор Повідомлення
Arsenfpu 
Відео Гуртом - фільмокрай
Відео Гуртом - фільмокрай


З нами з: 30.04.09
Востаннє: 11.04.21
Повідомлень: 8134

2021-04-05 11:14  
Планета самотніх 3 / Planeta Singli 3 (2019) AVC Ukr/Pol

Планета самотніх 3 / Planeta Singli 3 (2019) AVC Ukr/Pol


Жанр: комедія, романтичний
Країна: Польща



Кінокомпанія: Gigant Films
Режисер: Сем Акіна, Міхал Хаціньскі
Актори: Агнешка Вендлоха, Мацей Штур, Богуслав Лінда, Данута Стенка, Марія Пакульніс, Петро Гловацький, Вероніка Кщёжкевіч, Томаш Кароляк, Борис Шіц, Анна Смоловик

Сюжет:
У кожного є якісь проблеми з родичами, в сім'ї. Томек і Аня, нарешті, наважуються на шлюб. Весілля - на прохання Ані - пройде в селі, у родичів Томека, з якими він не підтримує зв'язку. Виявляється, що його брати і мати як італійська сім'я - кожна розмова може закінчитися сваркою, а від великої любові до бійки - один крок. Палива у вогонь підливає несподівана поява на весіллі батька Томека, який давно зник з життя своєї родини. Море емоцій, сміху і сюрпризів в оповіданні про те, що любов в різні періоди нашого життя означає зовсім різні речі.


Тривалість: 01:41:02
Якість:
Відео:
кодек:
розмір кадру: 1 024 х 432
бітрейт: 1 800 кб/с

Аудіо # 1:
мова: українська
переклад: професійний дубльований
кодек: 2.0
бітрейт: 192 кб/с

Аудіо # 2:
мова: польська
переклад: оригінал
кодек: 2.0
бітрейт: 192 кб/с
Скріншоти














Про файл
General
Unique ID : 34179219033657467747295971847846965319 (0x19B6AD9AAA8CE3055E9A64393E1B3047)
Complete name : D:\Planeta Singli 3 (2019) [Ukr,Pol] AVC [Hurtom].
Format :
Format version : Version 4
File size : 1.54 GiB
Duration : 1 h 41 min
Overall bit rate : 2 186 kb/s
Movie name : Планета самотніх 3 / Planeta Singli 3 (2019)
Encoded date : UTC 2021-04-08 21:11:35
Writing application : v53.0.0 ('Fool's Gold') 64-bit
Writing library : libebml v1.4.1 + v1.6.2
Cover : Yes
Attachments : cover.jpg

Video
ID : 1
Format : AVC
Format/Info : Advanced Video Codec
Format profile : [email protected]
Format settings : CABAC / 8 Ref Frames
Format settings, CABAC : Yes
Format settings, Reference : 8 frames
Codec ID : V_MPEG4/ISO/AVC
Duration : 1 h 41 min
Bit rate : 1 800 kb/s
Width : 1 024 pixels
Height : 432 pixels
Display aspect ratio : 2.40:1
Frame rate mode : Constant
Frame rate : 24.000 FPS
Color space : YUV
Chroma subsampling : 4:2:0
Bit depth : 8 bits
Scan type : Progressive
Bits/(Pixel*Frame) : 0.170
Stream size : 1.27 GiB (82%)
Writing library : core 157 r2969 d4099dd
Encoding settings : cabac=1 / ref=8 / deblock=1:-1:-1 / analyse=0x3:0x133 / me=umh / subme=10 / psy=1 / psy_rd=1.00:0.15 / mixed_ref=1 / me_range=32 / chroma_me=1 / trellis=2 / 8x8dct=1 / cqm=0 / deadzone=21,11 / fast_pskip=0 / chroma_qp_offset=-3 / threads=13 / lookahead_threads=1 / sliced_threads=0 / nr=0 / decimate=1 / interlaced=0 / bluray_compat=0 / constrained_intra=0 / bframes=3 / b_pyramid=2 / b_adapt=2 / b_bias=0 / direct=3 / weightb=1 / open_gop=0 / weightp=2 / keyint=240 / keyint_min=24 / scenecut=40 / intra_refresh=0 / rc_lookahead=60 / rc=2pass / mbtree=1 / bitrate=1800 / ratetol=1.0 / qcomp=0.60 / qpmin=0 / qpmax=69 / qpstep=4 / cplxblur=20.0 / qblur=0.5 / vbv_maxrate=31250 / vbv_bufsize=31250 / nal_hrd=none / filler=0 / ip_ratio=1.40 / aq=1:1.00
Default : Yes
Forced : No

Audio #1
ID : 2
Format : AC-3
Format/Info : Audio Coding 3
Commercial name : Dolby Digital
Codec ID : A_AC3
Duration : 1 h 41 min
Bit rate mode : Constant
Bit rate : 192 kb/s
Channel(s) : 2 channels
Channel layout : L R
Sampling rate : 48.0 kHz
Frame rate : 31.250 FPS (1536 SPF)
Compression mode : Lossy
Stream size : 139 MiB (9%)
Title : Інтер
Language : Ukrainian
Service kind : Complete Main
Default : Yes
Forced : Yes

Audio #2
ID : 3
Format : AC-3
Format/Info : Audio Coding 3
Commercial name : Dolby Digital
Codec ID : A_AC3
Duration : 1 h 41 min
Bit rate mode : Constant
Bit rate : 192 kb/s
Channel(s) : 2 channels
Channel layout : L R
Sampling rate : 48.0 kHz
Frame rate : 31.250 FPS (1536 SPF)
Compression mode : Lossy
Stream size : 139 MiB (9%)
Language : Polish
Service kind : Complete Main
Default : No
Forced : No
Джерело:
За запис з ТБ дякую пану Богдан
Особиста оцінка: не дивився


 Трекер:    Зареєстрований   

Завантажити / скачати фільм українською



відео для новачків



 Зареєстрований:   2021-04-09 00:13
 Розмір:   1.54 GB 
 Оцінка фільму:   9/10 (Голосів: 4)
   
Інші релізи
ssTAss 
Модератор музики


З нами з: 05.07.08
Востаннє: 11.04.21
Повідомлень: 17580

2021-04-05 14:01  
цей теж +1080
antik_2008 
Релізер і модератор відео


З нами з: 20.10.08
Востаннє: 11.04.21
Повідомлень: 4852

2021-04-05 21:24  
Arsenfpu

було би добре зробити відразу з оригіналом 2 і 3
як тут https://toloka.to/t102949

Arsenfpu 
Відео Гуртом - фільмокрай
Відео Гуртом - фільмокрай


З нами з: 30.04.09
Востаннє: 11.04.21
Повідомлень: 8134

2021-04-05 21:39  
antik_2008
тобто, 5.1? який сенс у додаткових 200МБ?

antik_2008 
Релізер і модератор відео


З нами з: 20.10.08
Востаннє: 11.04.21
Повідомлень: 4852

2021-04-06 01:52  
Arsenfpu написано:

antik_2008
тобто, 5.1? який сенс у додаткових 200МБ?

щоб оригінал був
там вже, як вийде

bot 
робот


З нами з: 30.09.07
Востаннє: 26.05.05
Повідомлень: 27852

2021-04-09 00:13  
Тему перенесено з Анонси релізів до форуму Фільми


Arsenfpu

Ваш часовий пояс: GMT + 2 Години

Нова тема   Відповісти