Рей і пожежний патруль (Сезон 1) / Ray - Fire Engine / Fire Engine, RAY (Season 1) (2017) 1080p

Нові коментарі

Нова тема   Відповісти
Автор Повідомлення
urij546724 
Відео Гуртом - фільмокрай
Відео Гуртом - фільмокрай


З нами з: 16.03.10
Востаннє: 11.04.21
Повідомлень: 5783

2021-04-04 18:09  
Рей і пожежний патруль (Сезон 1) / Ray - Fire Engine / Fire Engine, RAY (Season 1) (2017) 1080p



Жанр: анімація, сімейний, пригодницький
Країна: Південна Корея



Режисер: Хюн Ву Кім (Hyunwoo Kim)

Сюжет:
Рей - не простий хлопчик. Він керує в невеликому містечку таємним пожежним патрулем і завжди зі своїми машинками прийде на допомогу. Підтримують Рея його кращі друзі - Ембі, Хейзел, Памп, Бікон, Ред і Хелікс. Рея обожнюють малюки і завжди звертаються до нього, якщо потрібно. Наприклад, тільки він, завдяки сміливості і дитячої безпосередності, може врятувати місто від злих інопланетян. Вони якось вторглися туди і заважають там жити, роблячи капості.
Перелік серій:

Сезон 1:
01 Рей та його команда
02 Повернення Хелікса
03 День Народження
04 Напад бджіл
05 Тренування
06 Цуценя Коко
07 Ембі в небезпеці
08 Комарі
09 Пилова буря
10 Таблетки
11 Електрика
12 Спаркі і пожежа
13 Ігровий майданчик
14 Бікон зник
15 Гра в хованки
16 Пропеллер
17 Пташка у дворі
18 Зоряне небо
19 Іграшковий робот
20 Дивний кур'єр
21 Басейн
22 Іграшкова машина
23 Крижана дорога
24 Грозова хмара
25 Чарівний камінь
26 Рейботе активація
Тривалість: ~ 00:22:30
Якість: 1080p
Відео:
кодек:
розмір кадру: 1920 х 1072
бітрейт: ~4000 кб/с
частота кадрів: 25 к/с (fps)
примітка: напис назви мультсеріалу та серії російською

Аудіо #1:
мова: українська
переклад: багатоголосий закадровий
кодек: 2.0
бітрейт: 192 кб/с
запис звуку з каналу: Піксель
примітка: в 22 серії відсутні 30 секунд озвучки після вступної пісні.
Media info:
General
Unique ID : 340170050203389691091416616856992325665 (0xFFEA5E5BB86A0FA2B34860CD7FE3A021)
Complete name : D:\Ray Fire Engine S01 WEB-DL1080p\Ray Fire Engine.S01E15..1080p-mazepa.
Format :
Format version : Version 4
File size : 398 MiB
Duration : 13 min 15 s
Overall bit rate : 4 194 kb/s
Movie name : Ray Fire Engine S01E15 by mazepa.to
Encoded date : UTC 2021-03-12 08:55:47
Writing application : v51.0.0 ('I Wish') 32-bit
Writing library : libebml v1.4.0 + v1.6.2

Video
ID : 1
Format : AVC
Format/Info : Advanced Video Codec
Format profile : [email protected]
Format settings : CABAC / 3 Ref Frames
Format settings, CABAC : Yes
Format settings, Reference : 3 frames
Codec ID : V_MPEG4/ISO/AVC
Duration : 13 min 15 s
Bit rate : 4 000 kb/s
Width : 1 920 pixels
Height : 1 072 pixels
Display aspect ratio : 16:9
Frame rate mode : Constant
Frame rate : 25.000 FPS
Color space : YUV
Chroma subsampling : 4:2:0
Bit depth : 8 bits
Scan type : Progressive
Bits/(Pixel*Frame) : 0.078
Stream size : 379 MiB (95%)
Language : English
Default : Yes
Forced : No

Audio
ID : 2
Format : AC-3
Format/Info : Audio Coding 3
Commercial name : Dolby Digital
Codec ID : A_AC3
Duration : 13 min 15 s
Bit rate mode : Constant
Bit rate : 192 kb/s
Channel(s) : 2 channels
Channel layout : L R
Sampling rate : 48.0 kHz
Frame rate : 31.250 FPS (1536 SPF)
Compression mode : Lossy
Stream size : 18.2 MiB (5%)
Title : MVO | Піксель
Language : Ukrainian
Service kind : Complete Main
Default : Yes
Forced : No
Скріншоти:





Трейлери:


Семпл:
Джерело 1_________Джерело 2_________Джерело 3_________Джерело 4_________Джерело 5_________Джерело 6
У випадку, якщо з усіх джерел семпл видалять, прохання повідомити мені у ПРИВАТ


Подяка:

1. Пану sergiyko.5 за створення релізу


Реліз створено:

Реліз створено за підтримки BMK12



Бронзовий реліз (на рейтинг впливає 75% завантаженого)
 Трекер:    Зареєстрований   

Завантажити / скачати мультфільм українською



відео для новачків



 Зареєстрований:   2021-04-04 18:09
 Розмір:   10.14 GB 
 Оцінка мультсеріалу:   -/10 (Голосів: 0)
 Прохання не тікати з роздачі і залишати коментарі.
   
Ваш часовий пояс: GMT + 2 Години

Нова тема   Відповісти