[збір коштів] Сонячні протилежності (Сезон 2, Серія 1 з 8) / Solar Opposites (Season 1, Episode 1 of 8) (2021) 1080p Ukr/Eng

Нові коментарі

Нова тема   Відповісти
Автор Повідомлення
Цікава ідея 
VIP


З нами з: 26.12.11
Востаннє: 11.04.21
Повідомлень: 859

2021-04-03 23:19  
[збір коштів] Сонячні протилежності (Сезон 2, Серія 1 з 8) / Solar Opposites (Season 1, Episode 1 of 8) (2021) 1080p Ukr/Eng


[збір коштів] Сонячні протилежності (Сезон 2, Серія 1 з 8) / Solar Opposites (Season 1, Episode 1 of 8) (2021) 1080p Ukr/Eng


На озвучення мультсеріалу проходить ЗБІР КОШТІВ


Жанр: анімація, комедія, наукова фантастика
Країна: США



Режисери: Майк Мак-Махан, Джастін Ройланд
Актори: Шон Джамброн, Мері Мак, Джастін Ройланд

Сюжет:
Ми побачимо продовження історії про чотирьох прибульців, які рятуються з власної планети, а місцем їхнього призначення стає Земля. Саме тут їм доведеться прилаштовуватися до незвичного життя, яке викликає у них безліч протиріч.


Перекладено та озвучено ТО "Цікава Ідея"


Тривалість: 1 серія: ~ 22 хв. (цілком серій: 1/8)
Перелік серій:

01. The Sacred Non-Repeating Number
02. —
03. —
04. —
05. —
06. —
07. —
08. —
Якість: 1080p
Відео:
кодек:
розмір кадру: 1920 x 1080
бітрейт: ~ 3119 кб/с

Аудіо # 1:
мова: українська | "Цікава Ідея"
переклад: професійний багатоголосий закадровий
кодек: 5.1
бітрейт: 448 кб/с

Аудіо # 2:
мова: англійська
переклад: оригінал
кодек: 5.1
бітрейт: 256 кб/с
Info
Код:
Format                                   :
Format version                           : Version 4
File size                                : 600 MiB
Duration                                 : 21 min 53 s
Overall bit rate                         : 3 831 kb/s
Movie name                               : Сонячні протилежності / Solar Opposites - S01E01 (2021) 1080p [Ukr.Eng] [Цікава Ідея]
Encoded date                             : UTC 2021-04-03 20:08:39
Writing application                      : v50.0.0 ('Awakenings') 64-bit
Writing library                          : libebml v1.4.0 + v1.6.2
Cover                                    : Yes
Attachments                              : cover.jpg

Video
ID                                       : 1
Format                                   : AVC
Format/Info                              : Advanced Video Codec
Format profile                           : [email protected]
Format settings                          : CABAC / 4 Ref Frames
Format settings, CABAC                   : Yes
Format settings, Reference frames        : 4 frames
Codec ID                                 : V_MPEG4/ISO/AVC
Duration                                 : 21 min 53 s
Bit rate                                 : 3 119 kb/s
Width                                    : 1 920 pixels
Height                                   : 1 080 pixels
Display aspect ratio                     : 16:9
Frame rate mode                          : Constant
Frame rate                               : 23.976 (24000/1001) FPS
Color space                              : YUV
Chroma subsampling                       : 4:2:0
Bit depth                                : 8 bits
Scan type                                : Progressive
Bits/(Pixel*Frame)                       : 0.063
Stream size                              : 488 MiB (81%)
Default                                  : Yes
Forced                                   : No

Audio #1
ID                                       : 2
Format                                   : AC-3
Format/Info                              : Audio Coding 3
Commercial name                          : Dolby Digital
Codec ID                                 : A_AC3
Duration                                 : 21 min 53 s
Bit rate mode                            : Constant
Bit rate                                 : 448 kb/s
Channel(s)                               : 6 channels
Channel layout                           : L R C LFE Ls Rs
Sampling rate                            : 48.0 kHz
Frame rate                               : 31.250 FPS (1536 SPF)
Compression mode                         : Lossy
Stream size                              : 70.1 MiB (12%)
Title                                    : Цікава Ідея
Language                                 : Ukrainian
Service kind                             : Complete Main
Default                                  : Yes
Forced                                   : Yes

Audio #2
ID                                       : 3
Format                                   : E-AC-3
Format/Info                              : Enhanced AC-3
Commercial name                          : Dolby Digital Plus
Codec ID                                 : A_EAC3
Duration                                 : 21 min 53 s
Bit rate mode                            : Constant
Bit rate                                 : 256 kb/s
Channel(s)                               : 6 channels
Channel layout                           : L R C LFE Ls Rs
Sampling rate                            : 48.0 kHz
Frame rate                               : 31.250 FPS (1536 SPF)
Compression mode                         : Lossy
Stream size                              : 40.1 MiB (7%)
Title                                    : Original
Language                                 : English
Service kind                             : Complete Main
Default                                  : No
Forced                                   : No
Скріншоти



Перекладено та озвучено творчим об'єднанням:


Авторський реліз (завантажувати можна без реєстрації)
 Трекер:    Зареєстрований   

Завантажити / скачати мультфільм українською



відео для новачків



 Зареєстрований:   2021-04-03 23:19
 Розмір:   600 MB 
 Оцінка мультсеріалу:   10/10 (Голосів: 5)
   
Цікава ідея 
VIP


З нами з: 26.12.11
Востаннє: 11.04.21
Повідомлень: 859

2021-04-03 23:20  
Друзі, ми переклали та озвучили 1 СЕРІЮ!
Підтримайте озвучення наступних серій,
реквізити в описі релiзу.


Бажаємо всім приємного перегляду!

zim333 
Поважний учасник


З нами з: 15.07.11
Востаннє: 04.04.21
Повідомлень: 163

2021-04-04 02:18  
Круто! Добре, що продовжили озвучення. Хоча писали, що не будете робити).

Це озвучення мені більше подобається. Дякую.

GoDLiKeR20 
Свій


З нами з: 21.06.13
Востаннє: 11.04.21
Повідомлень: 113

2021-04-04 18:31  
То це тут Євген Малуха?, то це типу актори озвучки 1 сезону від simpsonsua... Я то дивуюся, чого вони на свому сайті виклали озвучку ЦІ, а ви сюда і туда перейменувалися-перемістилися, тю))
Dark Invader 
Модератор відео


З нами з: 06.01.11
Востаннє: 11.04.21
Повідомлень: 3175

2021-04-04 18:57  
GoDLiKeR20 написано:
то це типу актори озвучки 1 сезону від simpsonsua...

Так, актори ті ж самі, що і першому сезонів від simpsonsua.

Mystic-Mirage 
Новенький


З нами з: 30.01.18
Востаннє: 11.04.21
Повідомлень: 3

2021-04-07 02:18  
У імені файлу S01 замість S02

У назві теми та у заголовку теж поправте, будь ласонька.

Цікава ідея 
VIP


З нами з: 26.12.11
Востаннє: 11.04.21
Повідомлень: 859

2021-04-08 10:33  
Mystic-Mirage написано:
У імені файлу S01 замість S02

Дякуємо! Оновимо із релізом наступних серій.

Ваш часовий пояс: GMT + 2 Години

Нова тема   Відповісти