Мопсики-приятелі (Сезон 1-2) / Puppy Dog Pals (Season 1-2) (2018-2019) \ 1080p

Нові коментарі

Нова тема   Відповісти
Автор Повідомлення
urij546724 
Відео Гуртом - фільмокрай
Відео Гуртом - фільмокрай


З нами з: 16.03.10
Востаннє: 10.04.21
Повідомлень: 5782

2021-04-03 19:52  
Мопсики-приятелі (Сезон 1-2) / Puppy Dog Pals (Season 1-2) (2018-2019) \ 1080p



Жанр: анімація, сімейний
Країна: США, Індія



Кінокомпанія: Disney Junior, Disney Television Animation, Wild Canary
Режисер: Гарланд Вільямс (Harland Williams)
Актори: Гарланд Вільямс (Harland Williams ), Іссак Райан Браун (Issac Ryan Brown), Сем Лаваніно (Sam Lavagnino), Том Кенні (Tom Kenny), Джессіка ДіЧікко (Jessica DiCicco)...

Сюжет:
Головні герої цього мультсеріалу - кумедні мопси Бінго і Роллі, які завжди активні. Вони просто не можуть всидіти на місці! Головним героям не складає труднощів вигадати нові ігри і гарненько розважити себе, коли буде нудно. Причому мопси не бояться подорожувати по світу, досліджуючи нові землі, дізнаючись нові особливості віддалених куточків земної кулі, вивчаючи культуру і традиції інших країн світу. Незважаючи на самостійність персонажі все одно повертаються до свого господаря Боба. Він - винахідник, який постійно чимось зайнятий. Останнє його творіння - пес-робот Г.А.В., який є кращим другом братів Бінго і Роллі.
Перелік серій:

Сезон 1:
01.Hawaii Pug Oh-A.R.F.
02.The French Toast Connection-Take Me Out to the Pug Game
03.A Pyramid Scheme-Special Delivery
04.Design A Dog-Ice, Ice Puggy
05.The Go Long Retriever-Pot O' Pugs
06.Hissy's Big Day-Go, Dog. Go
07.Pigs and Pugs-Bob Loves Mona
08.Art for Pug's Sake-Winter Wonderpug
09.Don't Rain on My Pug-rade-Their Royal Pugness
10.Bye Bye, Butterfly-A Seat at the Theatre
11.The Great Pug scape-Luck of the Pug ish
12.Don't Rain on my Pug rade-Their Royal Pug ness
13.Scuba Doggies-Walking the Bob
14.Puzzling Pugs-Rhapsody in Pug
15.Leave it to Beavers-Counting Sheep
16.Captain Rolly-The Coolest Dogs in Town
17.Puzzling Pugs-Rhapsody in Pug
18.The Legend of Ol' Snapper-Adventures in Puppy Sitting
19.Puggy ology-Squirrels Just Wanna Have Fun
20.Bingo & Rolly's Birthday-Electric Pugaloo
21.Close Encounters of a Pug Kind-History Mystery
22.The Great Shirt Rescue-A Pugtastic Day with Grandma
23.Return to the Pumpkin Patch-Haunted Howl-oween
24.Bob's Boomerang-Fetch that Fish
25.A Very Pug Christmas-The Latke Kerfuffle

Сезон 2:
01.A New Pup in Town-The Last Pup-icorn
02.Keia's New Doghouse-The Fang Fairy
03.Duck, Duck, Dog-Mr. Bob Goes to Washington
04.Land of the Rising Pups-ARF-choo
05.One Small Ruff for Pup-kind-The Lost Bouncy Ball
06.The Total Yodel-Bob's Birthday Wish
07.Operation. Dinner-The Case of the Missing Caterpillar
08.Lemur Play-How the Dog Park Was Won
09.Windy City-Sham pooch
10.Dinner Thief on the Puppytown Express-O' Brother, Where ARF Thou
11.Speedy as a Cheetah-The Soup Search
12.A Santa for Bob-Snowman Secret Service
13.Cousin Cody-Hissy's Lost Toy
14.Keep on Food Truckin-Pupigan's Island
15.No Bones About It-Bob's Sock Debacle
16.The Bark Bowl-When Hedgie Met Sallie
17.Valentine Surprise-Bright Lights, Pup City
18.Fantastic Pet Force-Sea No Turtle
19.Father's Day Countdown-20,000 Leagues Under the Lake
20.Wonder-Bob-Yay, Earth Day
21.Double Doggie Dare-Empire State of Mind
22.Adopt-a-Palooza-The Legend of Captain Wunderbark
23.What to Expect When You're Egg-specting-Ruffin' It
24.Desert Pups-Okavango Odyssey
25.Bob's Dream Vacation-The Mystery of the Missing Golf Ball
26.I Heart Rufus-Trolley Trouble
27.Cuckoo for Cuckoo Clocks-Good Reef
28.Take Your Dog to Work Day-Slumber Paw-ty
29.How ARF Got His Bark Back-Sir Bob
30.To the Library-ARF's Birthday
Тривалість: ~ 00:22:30
Якість: \ 1080p
Відео:
кодек:
розмір кадру: 1920 х 1080
бітрейт: ~7300 кб/с (s1); ~4000 кб/с (s2)
частота кадрів: 25 к/с (fps)
примітка: у 27 і 30 серії 2-го сезону присутні дропи

Аудіо #1:
мова: українська
переклад: професійний дубльований
кодек: MP2 2.0
бітрейт: 192 кб/с
запис звуку з каналу: ПлюсПлюс
примітка: звук записано з трансляції каналу Т2
Media info s1:
General
Unique ID : 338568493046339898538871740272827942534 (0xFEB5EB7E762AED99C42527D8AAB7C686)
Format :
Format version : Version 4
File size : 1.19 GiB
Duration : 22 min 37 s
Overall bit rate : 7 517 kb/s
Movie name : Puppy Dog Pals S01 rip by mazepa
Encoded date : UTC 2020-11-25 22:37:33
Writing application : v51.0.0 ('I Wish') 64-bit
Writing library : libebml v1.4.0 + v1.6.2

Video
ID : 1
Format : AVC
Format/Info : Advanced Video Codec
Format profile : [email protected]
Format settings : CABAC / 4 Ref Frames
Format settings, CABAC : Yes
Format settings, Reference : 4 frames
Codec ID : V_MPEG4/ISO/AVC
Duration : 22 min 37 s
Bit rate : 7 323 kb/s
Nominal bit rate : 8 985 kb/s
Width : 1 920 pixels
Height : 1 080 pixels
Display aspect ratio : 16:9
Frame rate mode : Constant
Frame rate : 25.000 FPS
Color space : YUV
Chroma subsampling : 4:2:0
Bit depth : 8 bits
Scan type : Progressive
Bits/(Pixel*Frame) : 0.141
Stream size : 1.16 GiB (97%)
Title : S01E14.Hissy's Kitty-Polly Wants a Pug
Writing library : core 160 r3000
Encoding settings : cabac=1 / ref=4 / deblock=1:0:0 / analyse=0x1:0x111 / me=hex / subme=4 / psy=1 / psy_rd=1.00:0.00 / mixed_ref=0 / me_range=16 / chroma_me=1 / trellis=1 / 8x8dct=0 / cqm=0 / deadzone=21,11 / fast_pskip=1 / chroma_qp_offset=0 / threads=16 / lookahead_threads=4 / sliced_threads=0 / nr=0 / decimate=1 / interlaced=0 / bluray_compat=0 / constrained_intra=0 / bframes=3 / b_pyramid=2 / b_adapt=1 / b_bias=0 / direct=1 / weightb=1 / open_gop=0 / weightp=1 / keyint=50 / keyint_min=5 / scenecut=0 / intra_refresh=0 / rc_lookahead=20 / rc=abr / mbtree=1 / bitrate=8985 / ratetol=1.0 / qcomp=0.60 / qpmin=0 / qpmax=69 / qpstep=4 / vbv_maxrate=49999 / vbv_bufsize=9375 / nal_hrd=none / filler=0 / ip_ratio=1.40 / aq=1:1.00
Language : English
Default : No
Forced : No

Audio
ID : 2
Format : MPEG Audio
Format version : Version 1
Format profile : Layer 2
Format settings : Joint stereo / Intensity Stereo + MS Stereo
Codec ID : A_MPEG/L2
Codec ID/Hint : MP2
Duration : 22 min 37 s
Bit rate mode : Constant
Bit rate : 192 kb/s
Channel(s) : 2 channels
Sampling rate : 48.0 kHz
Frame rate : 41.667 FPS (1152 SPF)
Compression mode : Lossy
Delay relative to video : -40 ms
Stream size : 31.1 MiB (3%)
Title : DUB MP2 2ch 192kbps | ПлюсПлюс
Language : Ukrainian
Default : Yes
Forced : No
Media info s2:
General
Unique ID : 219226461406574070287563614648890133689 (0xA4ED7B0CB28A9ED9773371CD30298CB9)
Format :
Format version : Version 4
File size : 672 MiB
Duration : 22 min 24 s
Overall bit rate : 4 193 kb/s
Movie name : S02E11.Speedy as a Cheetah-The Soup Search by mazepa.to
Encoded date : UTC 2021-03-28 13:23:16
Writing application : v38.0.0 ('The Silent Type') 64-bit
Writing library : libebml v1.3.9 + v1.5.2

Video
ID : 1
Format : AVC
Format/Info : Advanced Video Codec
Format profile : [email protected]
Format settings : CABAC / 4 Ref Frames
Format settings, CABAC : Yes
Format settings, Reference : 4 frames
Codec ID : V_MPEG4/ISO/AVC
Duration : 22 min 24 s
Bit rate : 4 000 kb/s
Width : 1 920 pixels
Height : 1 080 pixels
Display aspect ratio : 16:9
Frame rate mode : Constant
Frame rate : 25.000 FPS
Color space : YUV
Chroma subsampling : 4:2:0
Bit depth : 8 bits
Scan type : Progressive
Bits/(Pixel*Frame) : 0.077
Stream size : 641 MiB (95%)
Writing library : core 152 r2851 ba24899
Encoding settings : cabac=1 / ref=4 / deblock=1:-1:0 / analyse=0x3:0x113 / me=hex / subme=7 / psy=1 / psy_rd=0.40:0.00 / mixed_ref=1 / me_range=16 / chroma_me=1 / trellis=2 / 8x8dct=1 / cqm=0 / deadzone=21,11 / fast_pskip=1 / chroma_qp_offset=-2 / threads=24 / lookahead_threads=4 / sliced_threads=0 / nr=0 / decimate=0 / interlaced=0 / bluray_compat=0 / constrained_intra=0 / bframes=5 / b_pyramid=2 / b_adapt=1 / b_bias=0 / direct=1 / weightb=1 / open_gop=0 / weightp=2 / keyint=250 / keyint_min=25 / scenecut=40 / intra_refresh=0 / rc_lookahead=40 / rc=2pass / mbtree=1 / bitrate=4000 / ratetol=1.0 / qcomp=0.70 / qpmin=0 / qpmax=69 / qpstep=4 / cplxblur=20.0 / qblur=0.5 / vbv_maxrate=50000 / vbv_bufsize=62500 / nal_hrd=none / filler=0 / ip_ratio=1.40 / aq=1:0.60
Language : English
Default : Yes
Forced : No

Audio
ID : 2
Format : MPEG Audio
Format version : Version 1
Format profile : Layer 2
Format settings : Joint stereo / Intensity Stereo + MS Stereo
Codec ID : A_MPEG/L2
Codec ID/Hint : MP2
Duration : 22 min 24 s
Bit rate mode : Constant
Bit rate : 192 kb/s
Channel(s) : 2 channels
Sampling rate : 48.0 kHz
Frame rate : 41.667 FPS (1152 SPF)
Compression mode : Lossy
Stream size : 30.8 MiB (5%)
Title : DUB MP2 | ++
Language : Ukrainian
Default : Yes
Forced : No
Скріншоти:





Трейлер:
Семпл:
Джерело 1_________Джерело 2_________Джерело 3_________Джерело 4_________Джерело 5_________Джерело 6
У випадку, якщо з усіх джерел семпл видалять, прохання повідомити мені у ПРИВАТ


Подяка:

1. Пану sergiyko.5 за створення релізу


Реліз створено:

Реліз створено за підтримки BMK12



Бронзовий реліз (на рейтинг впливає 75% завантаженого)
 Трекер:    Зареєстрований   

Завантажити / скачати мультфільм українською



відео для новачків



 Зареєстрований:   2021-04-03 19:52
 Розмір:   49.25 GB 
 Оцінка мультсеріалу:   9/10 (Голосів: 1)
 Прохання не тікати з роздачі і залишати коментарі.
   
Ваш часовий пояс: GMT + 2 Години

Нова тема   Відповісти