44 коти (Сезон 2) / 44 Cats (Season 2) (2020) 1080p

Нові коментарі

Нова тема   Відповісти
Автор Повідомлення
urij546724 
Відео Гуртом - фільмокрай
Відео Гуртом - фільмокрай


З нами з: 16.03.10
Востаннє: 23.04.21
Повідомлень: 5784

2021-04-03 09:38  
44 коти (Сезон 2) / 44 Cats (Season 2) (2020) 1080p



Жанр: анімація, сімейний, комедія, мюзикл, музичний, пригодницький
Країна: Італія



Кінокомпанія: BToven Music, Institute of Antoniano, Rai Fiction
Режисер: Рафаель Казаль (Rafael Casal), Ігініо Страффі (Iginio Straffi)
Актори: Сара Наточенні (Sarah Natochenny), Кіра Джонсон (Keira Johnson), Джой Саларетті (Joy Salaretti), Еріка Шредер (Erica Schroeder), Джудіт Кабрал (Judith Cabral), Франческо Прандо (Francesco Prando), Алан Маріотт (Alan Marriott), Лорі Хаймс (Laurie Hymes)...

Сюжет:
44 коти – мультсеріал, що оповідає про чотирьох милих кошенят: Спалаха, Міледі, Пілу і Фрикаделя.
Пухнастики живуть в будинку бабусі Піни, вони люблять музику і пісні, тому створили власну музичну групу під назвою "Буфі коти". Старий бабусин гараж Кошенята перетворили в свій клуб, де проводять час удосконалюючи свої музичні таланти, а також дають концерти своїм друзям і сусідам. Вони намагаються завжди бути веселими і дружно проходять всі труднощі і допомагають тим, хто потрапив у біду.
Перелік серій:

Сезон 2:
01.A Cat-tastic Work of Art
02.Peppy's True Talent
03.Terry, The Firefighter Cat
04.A Very Special Girl
05.The Mystery of the Ghost Cat
06.The Flying Treasure Hunt
07.Sir Lamp, The Great Golfer
08.Pilou And Her Loose Tooth
09.Scribbly, The Stray Kitten
10.The Great Scooter Race
11.The Upside Down World
12.The Cat Color Game
13.Sushi, the globetrotting puppy
14.The Best Dog Challenge
15.A Rainy Day
16.Aida, the robot cat
17.Meatball, the mail delivery cat
18.The Basketfur Game
19.A day trip with uncle Greg
20.A Fistful of Cat Treats
21.The Treasure of Catbeard
22.Mice on the Run
23.Mara, the hippo
24.The Halloween Monster
25.Granny Pina's birthday
26.The Cat-fu Show
Тривалість: ~ 00:12:01
Якість: 1080p
Відео:
кодек:
розмір кадру: 1920 х 1080
бітрейт: ~4000 кб/с
частота кадрів: 25 к/с (fps)

Аудіо #1:
мова: українська
переклад: професійний дубльований
кодек: 2.0
бітрейт: 192 кб/с
запис звуку з каналу: ПлюсПлюс
Media info:
General
Unique ID : 245775085416108908743942040589631785378 (0xB8E68F45CB41AA73573515BF73BC89A2)
Format :
Format version : Version 4
File size : 361 MiB
Duration : 12 min 2 s
Overall bit rate : 4 196 kb/s
Movie name : S02E07.Sir Lamp, The Great Golfer by mazepa.to
Encoded date : UTC 2021-03-30 17:13:59
Writing application : v38.0.0 ('The Silent Type') 64-bit
Writing library : libebml v1.3.9 + v1.5.2

Video
ID : 1
Format : AVC
Format/Info : Advanced Video Codec
Format profile : [email protected]
Format settings : CABAC / 4 Ref Frames
Format settings, CABAC : Yes
Format settings, Reference : 4 frames
Codec ID : V_MPEG4/ISO/AVC
Duration : 12 min 2 s
Bit rate : 4 000 kb/s
Width : 1 920 pixels
Height : 1 080 pixels
Display aspect ratio : 16:9
Frame rate mode : Constant
Frame rate : 25.000 FPS
Color space : YUV
Chroma subsampling : 4:2:0
Bit depth : 8 bits
Scan type : Progressive
Bits/(Pixel*Frame) : 0.077
Stream size : 344 MiB (95%)
Writing library : core 152 r2851 ba24899
Encoding settings : cabac=1 / ref=4 / deblock=1:-2:-1 / analyse=0x3:0x113 / me=umh / subme=9 / psy=1 / psy_rd=0.40:0.00 / mixed_ref=1 / me_range=24 / chroma_me=1 / trellis=2 / 8x8dct=1 / cqm=0 / deadzone=21,11 / fast_pskip=1 / chroma_qp_offset=-2 / threads=24 / lookahead_threads=2 / sliced_threads=0 / nr=0 / decimate=1 / interlaced=0 / bluray_compat=0 / constrained_intra=0 / bframes=5 / b_pyramid=2 / b_adapt=2 / b_bias=0 / direct=3 / weightb=1 / open_gop=0 / weightp=2 / keyint=250 / keyint_min=25 / scenecut=40 / intra_refresh=0 / rc_lookahead=60 / rc=2pass / mbtree=1 / bitrate=4000 / ratetol=1.0 / qcomp=0.60 / qpmin=0 / qpmax=69 / qpstep=4 / cplxblur=20.0 / qblur=0.5 / vbv_maxrate=14000 / vbv_bufsize=14000 / nal_hrd=none / filler=0 / ip_ratio=1.40 / aq=1:0.60
Language : English
Default : Yes
Forced : No

Audio
ID : 2
Format : AC-3
Format/Info : Audio Coding 3
Commercial name : Dolby Digital
Codec ID : A_AC3
Duration : 12 min 2 s
Bit rate mode : Constant
Bit rate : 192 kb/s
Channel(s) : 2 channels
Channel layout : L R
Sampling rate : 48.0 kHz
Frame rate : 31.250 FPS (1536 SPF)
Compression mode : Lossy
Stream size : 16.5 MiB (5%)
Title : DUB | ++
Language : Ukrainian
Service kind : Complete Main
Default : Yes
Forced : No
Скріншоти:





Трейлер:


Семпл:
Джерело 1_________Джерело 2_________Джерело 3_________Джерело 4_________Джерело 5_________Джерело 6
У випадку, якщо з усіх джерел семпл видалять, прохання повідомити мені у ПРИВАТ


Подяка:

1. Пану sergiyko.5 за створення релізу


Реліз створено:

Реліз створено за підтримки BMK12



Бронзовий реліз (на рейтинг впливає 75% завантаженого)
 Трекер:    Зареєстрований   

Завантажити / скачати мультфільм українською



відео для новачків



 Зареєстрований:   2021-04-03 09:38
 Розмір:   9.16 GB 
 Оцінка мультсеріалу:   10/10 (Голосів: 1)
 Прохання не тікати з роздачі і залишати коментарі.
   
Ваш часовий пояс: GMT + 2 Години

Нова тема   Відповісти