Побачення у Вегасі (2020) AVC

Нові коментарі

Нова тема   Відповісти
Автор Повідомлення
Anonymous 







2021-04-02 19:58  
Побачення у Вегасі (2020) AVC

Побачення у Вегасі (2020) AVC


Жанр: комедія
Країна: Україна



Кінокомпанія: GO Productions, Filmster
Режисер: Сергій Вейн
Актори: Марина Д'яконенко, Микита Бичков-Андрієвський, Ольга Полякова, Михайло Кукуюк, Ерік Робертс / Eric Roberts, Вадим Галигін, Володимир Остапчук, Володимир Парфенюк (VovaZIL'Vova), Дар'я Петрожицька

Сюжет:
Артем – харизматичний та успішний менеджер рекламного агентства. Він з легкістю знайомиться з дівчатами та втирається в довіру до клієнтів, використовуючи їхню особисту інформацію з соціальних мереж. Від свого боса Артем отримує завдання терміново вирушати до Лас-Вегаса, щоб підписати контракт з надважливим клієнтом. На борту літака герой випадково знайомиться з вродливою та розумною Оксаною, яка виявляється його конкуренткою. Приховавши від Оксани правду про себе, Артем вирішує будь-що завадити суперниці. Через витівки Артема героїв знімають з рейсу в Лос-Анджелесі. Надалі подорож до Лас-Вегаса перетворюється на захоплюючу романтичну пригоду.
Офіційний український трейлер:

Тривалість: 01:31:10
Якість: AVC
Відео:
кодек:
розмір кадру: 1016х424
бітрейт: 2014 кб/с

Аудіо # 1:
мова: українська
переклад: оригінал
кодек: 2.0
бітрейт: 256 кб/с

Аудіо # 2:
мова: українська
переклад: оригінал
кодек: 5.1
бітрейт: 256 кб/с
Info та log:
Код:
General
Unique ID                   : 325259014334695806368277224992594621571 (0xF4B29B87AB77AFB635535BB948F67483)
Complete name               : Pobachennia u Vegasi (2020) [Ukr] AVC [Hurtom].
Format                      :
Format version              : Version 4
File size                   : 1.61 GiB
Duration                    : 1 h 31 min
Overall bit rate            : 2 527 kb/s
Movie name                  : Побачення у Вегасі (2020) [Ukr] AVC [Hurtom]
Encoded date                : UTC 2021-04-02 21:20:54
Writing application         : v55.0.0 ('Waiting For Space') 64-bit
Writing library             : libebml v1.4.2 + v1.6.4
Cover                       : Yes
Attachments                 : cover.jpg

Video
ID                          : 1
Format                      : AVC
Format/Info                 : Advanced Video Codec
Format profile              : [email protected]
Format settings             : CABAC / 9 Ref Frames
Format settings, CABAC      : Yes
Format settings, Reference  : 9 frames
Codec ID                    : V_MPEG4/ISO/AVC
Duration                    : 1 h 31 min
Bit rate                    : 2 014 kb/s
Width                       : 1 016 pixels
Height                      : 424 pixels
Display aspect ratio        : 2.40:1
Frame rate mode             : Constant
Frame rate                  : 24.000 FPS
Color space                 : YUV
Chroma subsampling          : 4:2:0
Bit depth                   : 8 bits
Scan type                   : Progressive
Bits/(Pixel*Frame)          : 0.195
Stream size                 : 1.28 GiB (80%)
Title                       : Побачення у Вегасі (2020) AVC [Hurtom]
Writing library             : core 157 r2969 d4099dd
Encoding settings           : cabac=1 / ref=9 / deblock=1:-3:-3 / analyse=0x3:0x133 / me=umh / subme=11 / psy=1 / psy_rd=1.00:0.15 / mixed_ref=1 / me_range=32 / chroma_me=1 / trellis=2 / 8x8dct=1 / cqm=0 / deadzone=21,11 / fast_pskip=0 / chroma_qp_offset=-3 / threads=6 / lookahead_threads=1 / sliced_threads=0 / nr=0 / decimate=1 / interlaced=0 / bluray_compat=0 / constrained_intra=0 / bframes=8 / b_pyramid=2 / b_adapt=2 / b_bias=0 / direct=3 / weightb=1 / open_gop=0 / weightp=2 / keyint=240 / keyint_min=24 / scenecut=40 / intra_refresh=0 / rc_lookahead=60 / rc=2pass / mbtree=0 / bitrate=2014 / ratetol=1.0 / qcomp=0.60 / qpmin=0 / qpmax=69 / qpstep=4 / cplxblur=20.0 / qblur=0.5 / vbv_maxrate=14000 / vbv_bufsize=17500 / nal_hrd=none / filler=0 / ip_ratio=1.40 / pb_ratio=1.30 / aq=1:1.00
Language                    : Ukrainian
Default                     : Yes
Forced                      : No

Audio #1
ID                          : 2
Format                      : LC
Format/Info                 : Advanced Audio Codec Low Complexity
Codec ID                    : A_AAC-2
Duration                    : 1 h 31 min
Bit rate                    : 256 kb/s
Channel(s)                  : 2 channels
Channel layout              : L R
Sampling rate               : 44.1 kHz
Frame rate                  : 43.066 FPS (1024 SPF)
Compression mode            : Lossy
Stream size                 : 167 MiB (10%)
Language                    : Ukrainian
Default                     : Yes
Forced                      : No

Audio #2
ID                          : 3
Format                      : LC
Format/Info                 : Advanced Audio Codec Low Complexity
Codec ID                    : A_AAC-2
Duration                    : 1 h 31 min
Bit rate                    : 256 kb/s
Channel(s)                  : 6 channels
Channel layout              : C L R Ls Rs LFE
Sampling rate               : 44.1 kHz
Frame rate                  : 43.066 FPS (1024 SPF)
Compression mode            : Lossy
Stream size                 : 167 MiB (10%)
Language                    : Ukrainian
Default                     : No
Forced                      : No


Код:
y4m  [info]: 1016x424p 1:1 @ 24/1 fps (cfr)
[info]: using SAR=1/1
[info]: using cpu capabilities: MMX2 SSE2Fast SSSE3 SSE4.2 AVX FMA3 BMI2 AVX2
[info]: profile Progressive High, level 4.1, 4:2:0, 8-bit
[info]: frame I:1112  Avg QP:15.99  size: 55156
[info]: frame P:33704 Avg QP:18.93  size: 20149
[info]: frame B:96472 Avg QP:21.34  size:  6587
[info]: consecutive B-frames:  3.5%  3.5% 12.6% 36.8% 21.2% 18.5%  1.6%  0.6%  1.6%
[info]: mb I  I16..4:  8.3% 53.1% 38.5%
[info]: mb P  I16..4:  2.2% 14.6%  3.6%  P16..4: 27.1% 29.6% 11.8%  2.4%  0.3%    skip: 8.4%
[info]: mb B  I16..4:  0.3%  1.9%  0.3%  B16..8: 30.3% 20.6%  3.7%  direct: 6.1%  skip:36.7%  L0:38.9% L1:42.4% BI:18.6%
[info]: 8x8 transform intra:70.4% inter:52.9%
[info]: direct mvs  spatial:97.0% temporal:3.0%
[info]: coded y,uvDC,uvAC intra: 72.3% 80.9% 64.7% inter: 19.6% 23.1% 7.6%
[info]: i16 v,h,dc,p: 28% 31%  7% 34%
[info]: i8 v,h,dc,ddl,ddr,vr,hd,vl,hu: 17% 14% 13%  6%  8% 10%  9% 10% 12%
[info]: i4 v,h,dc,ddl,ddr,vr,hd,vl,hu: 24% 15% 12%  6%  9% 10%  9%  8%  9%
[info]: i8c dc,h,v,p: 32% 32% 21% 14%
[info]: Weighted P-Frames: Y:1.2% UV:0.5%
[info]: ref P L0: 54.7% 12.0% 16.2%  4.6%  4.1%  2.6%  2.6%  1.5%  1.7%  0.1%  0.0%
[info]: ref B L0: 85.1%  7.5%  2.9%  1.5%  1.1%  0.9%  0.6%  0.2%
[info]: ref B L1: 97.2%  2.8%
[info]: kb/s:2012.20
encoded 131288 frames, 19.76 fps, 2012.20 kb/s
Final statistics
Video Bitrate Desired: 2014 kbit/s
Скріншоти
Джерело:


Золотий реліз (завантажене не впливає на рейтинг)
 Трекер:    Зареєстрований   

Завантажити / скачати український фільм



відео для новачків



 Зареєстрований:   2021-04-03 01:14
 Розмір:   1.61 GB 
 Оцінка фільму:   7.2/10 (Голосів: 9)
   
ander2 
Новенький


З нами з: 04.10.09
Востаннє: 22.04.21
Повідомлень: 5

2021-04-03 11:36  
Бачив геніальний фільм з Еріком Робертсом "Акуловосьминіг". Сподіваюсь цей не гірший. Як фільм?
Ваш часовий пояс: GMT + 2 Години

Нова тема   Відповісти