Клуб Міккі Мауса (Сезон 1-3, 69 серій) / Mickey Mouse Clubhouse (Season 1-3, 69 episodes) (2006-2011) 1080p/-AVC Ukr/Eng | sub Ukr

Нові коментарі

Нова тема   Відповісти
Автор Повідомлення
urij546724 
Відео Гуртом - фільмокрай
Відео Гуртом - фільмокрай


З нами з: 16.03.10
Востаннє: 22.04.21
Повідомлень: 5784

2021-04-02 12:28  
Клуб Міккі Мауса (Сезон 1-3, 69 серій) / Mickey Mouse Clubhouse (Season 1-3, 69 episodes) (2006-2011) 1080p/-AVC Ukr/Eng | sub Ukr



Жанр: анімація, сімейний, комедія, фентезі, музичний
Країна: США, Індія



Кінокомпанія: Disney Television Animation
Режисер: Робертс Ганнавей (Roberts Gannaway)
Актори: Тоні Ансельмо (Tony Anselmo), Білл Фермер (Bill Farmer), Трес Макней (Tress MacNeille), Русі Тейлор (Russi Taylor), Вейн Олвайн (Wayne Allwine), Джим Каммінгс (Jim Cummings), Корі Бертон (Corey Burton), Ейпріл Вінчелл (April Winchell)...

Сюжет:
Розважальні серії для дошкільнят, що навчають і розвивають. Щодня Міккі Маус разом із друзями - Мінні, Дональдом Даком, Плуто, Ґуффі та багатьма іншими улюбленими героями - виконують особливе завдання, в ігровій формі підказуючи малюкам - як діяти у певній ситуації.
Перелік серій:

Сезон 1:
Episode 1: Загублені вівці / Daisy-Bo-Peep (2006)
Episode 2: Сюрприз для Мінні / A Surprise for Minnie (2006)
Episode 3: Пташка Гуффі / Goofy's Bird (2006)
Episode 4: Міккі на риболовлі / Mickey Goes Fishing (2006)
Episode 5: Дональд та перегони на повітряних кулях / Donald's Big Balloon Race (2006)
Episode 6: Дональд та бобова стеблина / Donald and the Beanstalk (2006)
Episode 7: День народження Мінні / Minnie's Birthday (2006)
Episode 8: Дональд – жаб’ячий принц / Donald the Frog Prince (2006)
Episode 9: Гуффі на Марсі / Goofy on Mars (2006)
Episode 10: Хованки з Міккі / Mickey-Go-Seek (2006)
Episode 11: Танок Дейзі / Daisy's Dance (2006)
Episode 12: Плуто та м'яч / Pluto's Ball (2006)
Episode 13: В пошуках скарбу / Mickey's Treasure Hunt (2006)
Episode 14: Плуто – чемпіон / Pluto's Best (2006)
Episode 15: Хелоуін / Mickey's Treat (2006)
Episode 16: Плуто – нянька / Pluto's Puppy-sitting Adventure (2006)
Episode 17: Політ Дейзі / Daisy in the Sky (2006)
Episode 18: Міккі рятує Санту / Mickey Saves Santa (2006)
Episode 19: Мінні - Червона Шапочка / Minnie Red Riding Hood (2006)
Episode 20: Гуфі - фокусник / Goofy the Great (2007)
Episode 21: Зоопарк Гуфі / Goofy's Petting Zoo (2007)
Episode 22: Зниклі кольори / Mickey's Color Adventure (2007)
Episode 23: Спляча красуня / Sleeping Minnie (2006)
Episode 24: Дональд та загублений лев / Donald's Lost Lion (2007)
Episode 25: Donald's Hiccups (2007)
Episode 26: Лікар Дейзі / Doctor Daisy M.D. (2007)

Сезон 2:
1) Fancy Dancin' Goofy
2) Mickey's Handy Helpers
3) Goofy the Homemaker
4) Goofy Baby
5) Minnie's Picnic
6) Goofy in Training
7) Daisy's Pet Project
8) Goofy's Hat
9) Mickey's Silly Problem
10) Mickey's Round Up
11) Mickey's Big Band Concert
12) Donald's Special Delivery
13) Pluto's Bubble Bath
14) Clarabelle's Clubhouse Carnival
15) Mickey and Minnie's Jungle Safari
16) Mickey's Big Job
17) Secret Spy Daisy
18) Mickey's Art Show
19) Mickey's Camp Out
20) Minnie's Mystery
21) Sir Goofs-a-Lot
22) Pluto to the Rescue!
23) Mickey's Thanks a Bunch Day

24) Mickey's Big Surprise
25) Mickey's Comet
26) Minnie's Rainbow
27) Clarabelle's Clubhouse Mooooo-sical
28) Goofy Goes Goofy
29) Space Captain Donald
30) The Friendship Team
31) Mickey's Message from Mars
32) Choo Choo Express
33) Pete's Beach Blanket Luau
34) Mickey and the Enchanted Egg
35) Donald's Ducks
36) Pluto's Playmate
37) Goofy's Coconutty Monkey

38) Minnie's Bee Story
39) Goofy's Super Wish
40) Daisy the Painter
41) Mickey's Adventures in Wonderland
42) Choo-Choo Express
43) Mickey Mouse Clubhouse: Mickey's Adventures in Wonderland
44) Detective Minnie


Сезон 3:
3) Super Goof's Super Puzzle
5) Happy Birthday Toodles
8) Minnie's Pajama Party
11) Daisy's Grasshopper
14) Minnie's Mouseke-Calendar
15) Minnie's Bow-tique
17) Minnie's Masquerade
23) The Go-Getters
26) Mickey's Train Station
Тривалість: ~ 00:24:30
Якість: 1080p/-AVC (s2e41)
Відео:
кодек:
розмір кадру: 1920 х 1080; 720 х 576 (s2e41)
бітрейт: ~5800 кб/с (s2e1,5,20); ~1807 кб/с (s2e41); ~2740-3480 кб/с (решта серій);
частота кадрів: 23.976 к/с (fps); 25 к/с (fps) (s2e41);

Аудіо #1:
мова: українська
переклад: професійний дубльований
кодек: 2.0
бітрейт: 192 кб/с
запис звуку з каналу: 1+1
примітка: озвучення відсутнє в: s2e24,30,35-41; s3-весь

Аудіо #2:
мова: англійська
переклад: оригінал
кодек: 5.1 (s2e41); 2.0 (решта серій)
бітрейт: 384 кб/с (s2e41); 128 кб/с (решта серій)

Субтитри #1:
мова: українська
тип: програмні (м'які)
формат: *.srt
примітка: лише в: s1e1-4,8,10,17-19,24; s2e1,4,5,9,10,12-17,19,24,28,30-33,35-41, s3-весь

Субтитри #2:
мова: англійська
тип: програмні (м'які)
формат: *.srt
примітка: лише s2e41
Media info:
General
Unique ID : 83753773930778394446586848244187999308 (0x3F0263DEB30912A3E5490D40085B2C4C)
Format :
Format version : Version 4
File size : 547 MiB
Duration : 24 min 1 s
Overall bit rate mode : Variable
Overall bit rate : 3 185 kb/s
Movie name : Mickey Mouse Clubhouse_S02E16_-_Mickey's Big Job [ukr_eng, sub ukr] 1080p [Hurtom]
Encoded date : UTC 2021-03-02 14:57:49
Writing application : v54.0.0 ('F Maj Pixie') 64-bit
Writing library : libebml v1.4.2 + v1.6.3
Attachments : Mickey Mouse Clubhouse_S01.jpg

Video
ID : 1
Format : AVC
Format/Info : Advanced Video Codec
Format profile : [email protected]
Format settings : CABAC / 3 Ref Frames
Format settings, CABAC : Yes
Format settings, Reference : 3 frames
Codec ID : V_MPEG4/ISO/AVC
Duration : 24 min 1 s
Bit rate mode : Variable
Bit rate : 2 870 kb/s
Maximum bit rate : 4 305 kb/s
Width : 1 920 pixels
Height : 1 080 pixels
Display aspect ratio : 16:9
Frame rate mode : Constant
Frame rate : 23.976 (24000/1001) FPS
Color space : YUV
Chroma subsampling : 4:2:0
Bit depth : 8 bits
Scan type : Progressive
Bits/(Pixel*Frame) : 0.058
Stream size : 492 MiB (90%)
Title : Mickey Mouse Clubhouse_S02E16_-_Mickey's Big Job 1080p [Hurtom]
Writing library : core 118
Encoding settings : cabac=1 / ref=3 / deblock=1:0:0 / analyse=0x1:0x111 / me=umh / subme=10 / psy=1 / psy_rd=1.00:0.00 / mixed_ref=1 / me_range=24 / chroma_me=1 / trellis=2 / 8x8dct=0 / cqm=0 / deadzone=21,11 / fast_pskip=1 / chroma_qp_offset=-2 / threads=8 / sliced_threads=0 / nr=0 / decimate=1 / interlaced=0 / bluray_compat=0 / constrained_intra=0 / bframes=2 / b_pyramid=0 / b_adapt=2 / b_bias=0 / direct=3 / weightb=1 / open_gop=0 / weightp=2 / keyint=48 / keyint_min=25 / scenecut=0 / intra_refresh=0 / rc_lookahead=0 / rc=2pass / mbtree=1 / bitrate=2870 / ratetol=1.0 / qcomp=0.50 / qpmin=6 / qpmax=51 / qpstep=4 / cplxblur=20.0 / qblur=0.5 / vbv_maxrate=4305 / vbv_bufsize=5740 / nal_hrd=vbr / ip_ratio=1.40 / aq=1:1.00
Language : English
Default : Yes
Forced : No

Audio #1
ID : 2
Format : AC-3
Format/Info : Audio Coding 3
Commercial name : Dolby Digital
Codec ID : A_AC3
Duration : 24 min 1 s
Bit rate mode : Constant
Bit rate : 192 kb/s
Channel(s) : 2 channels
Channel layout : L R
Sampling rate : 48.0 kHz
Frame rate : 31.250 FPS (1536 SPF)
Compression mode : Lossy
Stream size : 33.0 MiB (6%)
Title : Українська доріжка
Language : Ukrainian
Service kind : Complete Main
Default : Yes
Forced : Yes

Audio #2
ID : 3
Format : E-AC-3
Format/Info : Enhanced AC-3
Commercial name : Dolby Digital Plus
Codec ID : A_EAC3
Duration : 24 min 1 s
Bit rate mode : Constant
Bit rate : 128 kb/s
Channel(s) : 2 channels
Channel layout : L R
Sampling rate : 48.0 kHz
Frame rate : 31.250 FPS (1536 SPF)
Compression mode : Lossy
Stream size : 22.0 MiB (4%)
Title : Оригінальна доріжка
Language : English
Service kind : Complete Main
Default : No
Forced : No

Text
ID : 4
Format : UTF-8
Codec ID : S_TEXT/UTF8
Codec ID/Info : UTF-8 Plain Text
Duration : 23 min 51 s
Bit rate : 93 b/s
Count of elements : 334
Stream size : 16.3 KiB (0%)
Title : Українські субтитри
Language : Ukrainian
Default : No
Forced : No
Скріншоти:







Трейлер:
Семпл:
Джерело 1_________Джерело 2_________Джерело 3_________Джерело 4_________Джерело 5_________Джерело 6
У випадку, якщо з усіх джерел семпл видалять, прохання повідомити мені у ПРИВАТ


Подяка:

1. Панам dvorsky, xslim та fl_fl за запис звуку з ТБ.


Реліз створено: за підтримки BMK12

Увага! Якщо на українському телебаченні буде повторна трансляція цього мультсеріалу, прохання повідомити мені. Останнього разу на ПлюсПлюс транслювали усі 4 сезони.


Срібний реліз (на рейтинг впливає 50% завантаженого)
 Трекер:    Зареєстрований   

Завантажити / скачати мультфільм українською



відео для новачків



 Зареєстрований:   2021-04-02 12:28
 Розмір:   40.87 GB 
 Оцінка мультсеріалу:   -/10 (Голосів: 0)
 Прохання не тікати з роздачі і залишати коментарі.
   
Ваш часовий пояс: GMT + 2 Години

Нова тема   Відповісти