Нереальний КОПець (2021) AVC

Нові коментарі

Нова тема   Відповісти
Автор Повідомлення
Anonymous 







2021-04-02 08:38  
Нереальний КОПець (2021) AVC

Нереальний КОПець (2021) AVC


Жанр: комедія
Країна: Україна



Кінокомпанія: VAIT FILMS, Одеська кіностудія
Режисер: Олександр Бєляк
Актори: Станіслав Боклан, Дмитро Ступка, Богдан Юсипчук, Ганна Саліванчук, Поліна Логунова, Влад Яма, Борис Барський, Жанна Березовська, Андрій Осіпов

Сюжет:
За особистим зверненням Президента України, всі діти чиновників мають вчитися і працювати в Україні. Начальник поліції Петро Бурундяк викликає з Америки сина Василя і влаштовує його працювати патрульним до управління поліції в Одесі. Досі основною роботою Василя Бурундяка було витрачання батьківських грошей, але зараз це задоволення вже в минулому. Напарником Василя стає суворий лейтенант Богдан Громов, який отримав наказ підготувати Василя Бурундяка до Поліцейського Чемпіонату України, на якому вже через місяць буде присутній сам Президент. Чи вдасться Василю перетворитися з кволого мажору в зразок українського поліцейського, який поки думає лише про те, щоб не зіпсувати свій манікюр, заряджаючи табельну зброю.
Офіційний український трейлер:


Вікова категорія: 12+

Тривалість: 01:55:54
Якість: AVC [Hurtom]
Відео:
кодек:
розмір кадру: 1024х432
бітрейт: 1668 кб/с

Аудіо:
мова: українська
переклад: оригінал
кодек: 2.0
бітрейт: 256 кб/с
Info та log
Код:
General
Unique ID                   : 315607166822450050449240353526864867485 (0xED6FBAB5054FD361C5302291E0EEF09D)
Complete name               : Nerealnyj KOPec (2021) AVC [Hurtom].
Format                      :
Format version              : Version 4
File size                   : 1.56 GiB
Duration                    : 1 h 55 min
Overall bit rate            : 1 926 kb/s
Movie name                  : Нереальний КОПець (2021) AVC [Hurtom]
Encoded date                : UTC 2021-04-02 09:38:37
Writing application         : v55.0.0 ('Waiting For Space') 64-bit
Writing library             : libebml v1.4.2 + v1.6.4
Cover                       : Yes
Attachments                 : cover.jpg

Video
ID                          : 1
Format                      : AVC
Format/Info                 : Advanced Video Codec
Format profile              : [email protected]
Format settings             : CABAC / 12 Ref Frames
Format settings, CABAC      : Yes
Format settings, Reference  : 12 frames
Codec ID                    : V_MPEG4/ISO/AVC
Duration                    : 1 h 55 min
Bit rate                    : 1 668 kb/s
Width                       : 1 024 pixels
Height                      : 432 pixels
Display aspect ratio        : 2.40:1
Frame rate mode             : Constant
Frame rate                  : 25.000 FPS
Color space                 : YUV
Chroma subsampling          : 4:2:0
Bit depth                   : 8 bits
Scan type                   : Progressive
Bits/(Pixel*Frame)          : 0.151
Stream size                 : 1.35 GiB (87%)
Title                       : Нереальний КОПець (2021) AVC [Hurtom]
Writing library             : core 157 r2969 d4099dd
Encoding settings           : cabac=1 / ref=12 / deblock=1:-3:-3 / analyse=0x3:0x133 / me=umh / subme=11 / psy=1 / psy_rd=1.00:0.15 / mixed_ref=1 / me_range=32 / chroma_me=1 / trellis=2 / 8x8dct=1 / cqm=0 / deadzone=21,11 / fast_pskip=1 / chroma_qp_offset=-3 / threads=6 / lookahead_threads=1 / sliced_threads=0 / nr=0 / decimate=1 / interlaced=0 / bluray_compat=0 / constrained_intra=0 / bframes=16 / b_pyramid=2 / b_adapt=2 / b_bias=0 / direct=3 / weightb=1 / open_gop=0 / weightp=2 / keyint=250 / keyint_min=25 / scenecut=40 / intra_refresh=0 / rc_lookahead=60 / rc=crf / mbtree=0 / crf=18.0 / qcomp=0.60 / qpmin=0 / qpmax=69 / qpstep=4 / vbv_maxrate=11690 / vbv_bufsize=14612 / crf_max=0.0 / nal_hrd=none / filler=0 / ip_ratio=1.40 / pb_ratio=1.30 / aq=1:1.00
Language                    : Ukrainian
Default                     : Yes
Forced                      : No

Audio
ID                          : 2
Format                      : LC
Format/Info                 : Advanced Audio Codec Low Complexity
Codec ID                    : A_AAC-2
Duration                    : 1 h 55 min
Bit rate                    : 256 kb/s
Channel(s)                  : 2 channels
Channel layout              : L R
Sampling rate               : 44.1 kHz
Frame rate                  : 43.066 FPS (1024 SPF)
Compression mode            : Lossy
Stream size                 : 212 MiB (13%)
Language                    : Ukrainian
Default                     : Yes
Forced                      : No


Код:
y4m  [info]: 1024x432p 1:1 @ 25/1 fps (cfr)
[info]: using SAR=1/1
[info]: using cpu capabilities: MMX2 SSE2Fast SSSE3 SSE4.2 AVX FMA3 BMI2 AVX2
[info]: profile Progressive High, level 4.1, 4:2:0, 8-bit
[info]: frame I:1847  Avg QP:14.10  size: 48139
[info]: frame P:41287 Avg QP:15.82  size: 16899
[info]: frame B:130718 Avg QP:17.74  size:  5073
[info]: consecutive B-frames:  2.9%  2.0% 11.0% 31.0% 22.7% 27.0%  2.3%  0.4%  0.2%  0.1%  0.1%  0.0%  0.0%  0.0%  0.0%  0.0%  0.2%
[info]: mb I  I16..4:  9.8% 48.3% 41.9%
[info]: mb P  I16..4:  2.1% 12.7%  4.2%  P16..4: 25.0% 27.0% 12.4%  2.6%  0.4%    skip:13.6%
[info]: mb B  I16..4:  0.5%  2.1%  0.4%  B16..8: 27.6% 18.0%  3.3%  direct: 5.1%  skip:43.0%  L0:42.5% L1:43.9% BI:13.6%
[info]: 8x8 transform intra:65.7% inter:45.3%
[info]: direct mvs  spatial:100.0% temporal:0.0%
[info]: coded y,uvDC,uvAC intra: 72.2% 80.4% 68.0% inter: 14.8% 18.9% 6.2%
[info]: i16 v,h,dc,p: 31% 24%  9% 35%
[info]: i8 v,h,dc,ddl,ddr,vr,hd,vl,hu: 15% 14% 19%  7%  7%  8%  9%  9% 12%
[info]: i4 v,h,dc,ddl,ddr,vr,hd,vl,hu: 23% 17% 16%  6%  8%  8%  8%  7%  8%
[info]: i8c dc,h,v,p: 42% 30% 19% 10%
[info]: Weighted P-Frames: Y:1.7% UV:1.0%
[info]: ref P L0: 53.3%  8.0% 15.4%  5.3%  4.5%  3.3%  3.0%  1.7%  1.6%  1.4%  1.3%  1.3%  0.1%  0.0%
[info]: ref B L0: 78.1%  9.3%  4.3%  2.2%  1.6%  1.3%  1.1%  0.7%  0.7%  0.5%  0.2%
[info]: ref B L1: 96.1%  3.9%
[info]: kb/s:1667.77
encoded 173852 frames, 16.24 fps, 1667.77 kb/s
Final statistics
Constant Quality Mode: Quality 18 computed...
Video Bitrate Obtained (approximate): 1667 kbit/s
Скріншоти
Джерело:


Золотий реліз (завантажене не впливає на рейтинг)
 Трекер:    Зареєстрований   

Завантажити / скачати український фільм



відео для новачків



 Зареєстрований:   2021-04-02 12:44
 Розмір:   1.56 GB 
 Оцінка фільму:   6.1/10 (Голосів: 29)
   
Anonymous 







2021-04-02 12:57  
можна завантажувати
Aleks_Cat 
Свій


З нами з: 14.04.14
Востаннє: 19.04.21
Повідомлень: 57

2021-04-03 08:31  
Даремно витрачений час
sleepwall 
Новенький


З нами з: 14.03.09
Востаннє: 08.04.21
Повідомлень: 10

2021-04-03 10:00  
Ступка тільки позорить прізвище, таке дно, гірше за нього в фільмі не грав ніхто... На такому рівні як той дурнєв...
Жарти десь на рівні плінтуса...
Насправді соромно за такі фільми...
Подивіться краще Безславні кріпаки - там на голів 5 вище...

andriy_nv 
VIP


З нами з: 27.06.08
Востаннє: 19.04.21
Повідомлень: 1162

2021-04-04 18:13  
раз глянути можна
Maters 
Відео Гуртом - підтримка та поширення
Відео Гуртом - підтримка та поширення


З нами з: 27.03.12
Востаннє: 19.04.21
Повідомлень: 2579

2021-04-07 21:31  
sleepwall написано:
Ступка тільки позорить прізвище, таке дно, гірше за нього в фільмі не грав ніхто...

А він взагалі хоч в одному фільмі нормально грав? Я не пам'ятаю жодного.
Від мене фільму 5/10 тільки за те, що він український

Малдер 
Свій


З нами з: 19.08.08
Востаннє: 19.04.21
Повідомлень: 73

2021-04-09 22:03  
Maters написано:
А він взагалі хоч в одному фільмі нормально грав?


Ну якже? А в рекламі "Київстару"? Wide grin

Атлет 
Попереджень: 1
Попереджень: 1 


З нами з: 26.07.18
Востаннє: 19.04.21
Повідомлень: 179

2021-04-17 06:09  
З сюжетного опису цієї картини, кожному зрозуміло - режисер навмисне перекрутив факти виклику начальником поліції свого сина з Америки для того щоб отримати не Улан-Баторський а Американський Оскар за цей чудовий фільм...
Ваш часовий пояс: GMT + 2 Години

Нова тема   Відповісти