Диво-курка / La Gallina Turuleca (2019) AVC

Нові коментарі

Нова тема   Відповісти
Автор Повідомлення
Arsenfpu 
Відео Гуртом - фільмокрай
Відео Гуртом - фільмокрай


З нами з: 30.04.09
Востаннє: 15.04.21
Повідомлень: 8138

2021-04-02 00:51  
Диво-курка / La Gallina Turuleca (2019) AVC

Диво-курка / La Gallina Turuleca (2019) AVC


Жанр: анімація, пригодницький, сімейний
Країна: Іспанія, Аргентина



Кінокомпанія: Argentina Sono Film S.A.C.I., Brown Films AIE, Gloriamundi Producciones
Режисер: Едуардо Гонделл, Віктор Моніготе
Ролі озвучують: Ева Аче, Альваро де Хуана Пекос, Ана де Анхелес, Хосе Мота, Паула Коріа Портільо, Алехандро Гарсіа, Лоренцо Бетета, Віктор Моніготе, Альваро Наварро, Сандра Вілья Гарсіа

Сюжет:
Дивовижні пригоди незвичайної курочки, яка вміє відмінно співати, танцювати і мріє стати зіркою цирку.


Тривалість: 01:19:46
Якість:
Відео:
кодек:
розмір кадру: 1 024 х 432
бітрейт: 1 800 кб/с

Аудіо:
мова: українська
переклад: професійний дубльований
кодек: 2.0
бітрейт: 192 кб/с
Скріншоти











Про файл
General
Unique ID : 303019937470873228055572540638123176762 (0xE3F78462C5C90F7776B231BEC0CAB33A)
Complete name : D:\La Gallina Turuleca (2019) AVC [Hurtom].
Format :
Format version : Version 4
File size : 1.11 GiB
Duration : 1 h 19 min
Overall bit rate : 1 994 kb/s
Movie name : Диво-курка / La Gallina Turuleca (2019)
Encoded date : UTC 2021-04-01 21:44:59
Writing application : v53.0.0 ('Fool's Gold') 64-bit
Writing library : libebml v1.4.1 + v1.6.2

Video
ID : 1
Format : AVC
Format/Info : Advanced Video Codec
Format profile : [email protected]
Format settings : CABAC / 8 Ref Frames
Format settings, CABAC : Yes
Format settings, Reference : 8 frames
Codec ID : V_MPEG4/ISO/AVC
Duration : 1 h 19 min
Bit rate : 1 800 kb/s
Width : 1 024 pixels
Height : 432 pixels
Display aspect ratio : 2.40:1
Frame rate mode : Constant
Frame rate : 24.000 FPS
Color space : YUV
Chroma subsampling : 4:2:0
Bit depth : 8 bits
Scan type : Progressive
Bits/(Pixel*Frame) : 0.170
Stream size : 1.00 GiB (90%)
Writing library : core 157 r2969 d4099dd
Encoding settings : cabac=1 / ref=8 / deblock=1:-1:-1 / analyse=0x3:0x133 / me=umh / subme=10 / psy=1 / psy_rd=1.00:0.15 / mixed_ref=1 / me_range=32 / chroma_me=1 / trellis=2 / 8x8dct=1 / cqm=0 / deadzone=21,11 / fast_pskip=0 / chroma_qp_offset=-3 / threads=13 / lookahead_threads=1 / sliced_threads=0 / nr=0 / decimate=1 / interlaced=0 / bluray_compat=0 / constrained_intra=0 / bframes=3 / b_pyramid=2 / b_adapt=2 / b_bias=0 / direct=3 / weightb=1 / open_gop=0 / weightp=2 / keyint=240 / keyint_min=24 / scenecut=40 / intra_refresh=0 / rc_lookahead=60 / rc=2pass / mbtree=1 / bitrate=1800 / ratetol=1.0 / qcomp=0.60 / qpmin=0 / qpmax=69 / qpstep=4 / cplxblur=20.0 / qblur=0.5 / vbv_maxrate=31250 / vbv_bufsize=31250 / nal_hrd=none / filler=0 / ip_ratio=1.40 / aq=1:1.00
Default : Yes
Forced : No

Audio
ID : 2
Format : AC-3
Format/Info : Audio Coding 3
Commercial name : Dolby Digital
Codec ID : A_AC3
Duration : 1 h 19 min
Bit rate mode : Constant
Bit rate : 192 kb/s
Channel(s) : 2 channels
Channel layout : L R
Sampling rate : 48.0 kHz
Frame rate : 31.250 FPS (1536 SPF)
Compression mode : Lossy
Stream size : 110 MiB (10%)
Language : Ukrainian
Service kind : Complete Main
Default : Yes
Forced : No
Джерело:
Особиста оцінка: не дивився


 Трекер:    Зареєстрований   

Завантажити / скачати мультфільм українською



відео для новачків



 Зареєстрований:   2021-04-02 00:51
 Розмір:   1.11 GB 
 Оцінка мультфільму:   9.8/10 (Голосів: 6)
   
игорь 25 
Поважний учасник


З нами з: 02.10.17
Востаннє: 15.04.21
Повідомлень: 162

2021-04-02 11:34  
Як мульт? хтось дивився?
urij546724 
Відео Гуртом - фільмокрай
Відео Гуртом - фільмокрай


З нами з: 16.03.10
Востаннє: 14.04.21
Повідомлень: 5784

2021-04-02 12:12  
игорь 25 написано:
Як мульт? хтось дивився?

Дивилися з малим в оригіналі, йому сподобалось, та й мені)

Хельга 48 
Свій


З нами з: 02.02.14
Востаннє: 12.04.21
Повідомлень: 136

2021-04-05 22:53  
Просто чудово, враження - позитивні ,може трохи шкода, що пісні не перекладені ,але людям трохи старшого віку за 30+вони зрозумілі, а от кому 10+-це вже загадка
Ваш часовий пояс: GMT + 2 Години

Нова тема   Відповісти