Останній Рубіж (Сезон 3, серій 3 з 13) / Final space (Season 3, episodes 3 of 13) (2021) 720p 2xUkr/Eng | Sub Eng

Нові коментарі

Нова тема   Відповісти
Автор Повідомлення
Anonymous 







2021-04-01 23:57  
Останній Рубіж (Сезон 3, серій 3 з 13) / Final space (Season 3, episodes 3 of 13) (2021) 720p 2xUkr/Eng | Sub Eng



Жанр: комедія, пригоди, фантастика
Країна: США



Кінокомпанія: Conaco, Jam Filled Entertainment, ShadowMachine
Режисер: Майк Робертс
Актори: Фред Арміс, Том Кенні, Олен Роджерс, Тіка Самптер, Девід Теннант, Коуту Гелловей, Стівен Ян, Джон Ді Маджіо, Конан О’Брайен, Джина Торрес

Сюжет:
Ґері Ґудспід – невдаха, який потрапив на тюремний космічний корабель за випадкове знищення майже сотні одиниць військової техніки і одного поганенького ресторану. Перебуваючи в ув’язненні, він записує відео послання для дівчини, яку бачив лише раз в житті, лагодить супутники і лається з підлим штучним інтелектом, намагаючись випросити собі печиво.
В один із сотні однакових днів на Ґері в космосі натикається зелена кулька з милою пикою. З неї і починається пригода, в якій знайшлося місце і древньому космічному злу, і карликовому антагоністові з армією тупих солдат, і небезпеки вселенського масштабу.


Тривалість: 1 серія: ~ 22 хв. (цілком серій: 3 з 13)
Перелік серій
1 ...And Into The Fire Sat Mar 20, 2021
2 The Hidden Light Sat Mar 27, 2021
3 The Ventrexian Sat Apr 03, 2021
4 One of Us Sat Apr 10, 2021
5 All The Moments Lost Sat Apr 17, 2021
6 Change is Gonna Come Sat Apr 24, 2021
7 ...And the Chamber of Doubt
8
9
10
11
12
13
Якість:
Відео:
кодек:
розмір кадру: 1280 х 720
бітрейт: 3303 кб/с

Аудіо # 1:
мова: українська
переклад: багатоголосий закадровий | DniproFilm
кодек: 5.1
бітрейт: 384 кб/с

Аудіо # 2:
мова: українська
переклад: двоголосий закадровий | Dzuski
кодек: 2.0
бітрейт: 192 кб/с
Інформація про озвучення:
Переклад: Aspid
Ролі озвучували: Listik & Trina_D
Аудіо # 3:
мова: англійська
переклад: оригінал
кодек: E- 5.1
бітрейт: 640 кб/с

Субтитри:
мова: англійська
тип: програмні (м'які)
формат: *.srt
Info
Format :
Format version : Version 4
File size : 684 MiB
Duration : 21 min 8 s
Overall bit rate : 4 522 kb/s
Encoded date : UTC 2021-04-01 20:43:10
Writing application : v47.0.0 ('Black Flag') 64-bit
Writing library : libebml v1.3.10 + v1.5.2
Cover : Yes
Attachments : cover.jpg

Video
ID : 1
Format : AVC
Format/Info : Advanced Video Codec
Format profile : [email protected]
Format settings : CABAC / 4 Ref Frames
Format settings, CABAC : Yes
Format settings, Reference : 4 frames
Codec ID : V_MPEG4/ISO/AVC
Duration : 21 min 8 s
Bit rate mode : Constant
Bit rate : 3 303 kb/s
Nominal bit rate : 6 000 kb/s
Width : 1 280 pixels
Height : 720 pixels
Display aspect ratio : 16:9
Frame rate mode : Constant
Frame rate : 23.976 (24000/1001) FPS
Color space : YUV
Chroma subsampling : 4:2:0
Bit depth : 8 bits
Scan type : Progressive
Bits/(Pixel*Frame) : 0.149
Stream size : 500 MiB (73%)
Language : English
Default : Yes
Forced : No
Color range : Limited
Color primaries : BT.709
Transfer characteristics : BT.709
Matrix coefficients : BT.709

Audio #1
ID : 2
Format : AC-3
Format/Info : Audio Coding 3
Commercial name : Dolby Digital
Codec ID : A_AC3
Duration : 21 min 8 s
Bit rate mode : Constant
Bit rate : 384 kb/s
Channel(s) : 6 channels
Channel layout : L R C LFE Ls Rs
Sampling rate : 48.0 kHz
Frame rate : 31.250 FPS (1536 SPF)
Bit depth : 16 bits
Compression mode : Lossy
Stream size : 58.1 MiB (8%)
Title : MVO - [DniproFilm]
Language : Ukrainian
Service kind : Complete Main
Default : Yes
Forced : No

Audio #2
ID : 3
Format : AC-3
Format/Info : Audio Coding 3
Commercial name : Dolby Digital
Codec ID : A_AC3
Duration : 21 min 8 s
Bit rate mode : Constant
Bit rate : 192 kb/s
Channel(s) : 2 channels
Channel layout : L R
Sampling rate : 48.0 kHz
Frame rate : 31.250 FPS (1536 SPF)
Bit depth : 16 bits
Compression mode : Lossy
Stream size : 29.0 MiB (4%)
Title : DVO - [Dzuski]
Language : Ukrainian
Service kind : Complete Main
Default : No
Forced : No

Audio #3
ID : 4
Format : E-AC-3
Format/Info : Enhanced AC-3
Commercial name : Dolby Digital Plus
Codec ID : A_EAC3
Duration : 21 min 8 s
Bit rate mode : Constant
Bit rate : 640 kb/s
Channel(s) : 6 channels
Channel layout : L R C LFE Ls Rs
Sampling rate : 48.0 kHz
Frame rate : 31.250 FPS (1536 SPF)
Compression mode : Lossy
Stream size : 96.8 MiB (14%)
Language : English
Service kind : Complete Main
Default : No
Forced : No

Text
ID : 5
Format : UTF-8
Codec ID : S_TEXT/UTF8
Codec ID/Info : UTF-8 Plain Text
Duration : 20 min 59 s
Bit rate : 52 b/s
Count of elements : 323
Stream size : 8.05 KiB (0%)
Language : English
Default : No
Forced : No
Скріншоти











Джерело:
Особиста оцінка: 8/10


Авторський реліз (завантажувати можна без реєстрації)
 Трекер:    Зареєстрований   

Завантажити / скачати мультфільм українською



відео для новачків



 Зареєстрований:   2021-04-10 15:03
 Розмір:   1.84 GB 
 Оцінка мультсеріалу:   10/10 (Голосів: 5)
   
Masanchick 
VIP


З нами з: 08.04.11
Востаннє: 15.04.21
Повідомлень: 1624

2021-04-02 00:02  
Так від Дзусьок вже є 2 серія
Anonymous 







2021-04-02 00:06  
Masanchick написано:
Так від Дзусьок вже є 2 серія

Я знаю, але від Дніпро ще нема, а оновлювати по 100500 разів сенсу не бачу. Тому буду додавати серії коли від обох студій будуть наявні доріжки Happy

Masanchick 
VIP


З нами з: 08.04.11
Востаннє: 15.04.21
Повідомлень: 1624

2021-04-02 00:10  
Anonymous
Ви щось розділом помилилися, це ж все таки не серіал а мультсеріал

bot 
робот


З нами з: 30.09.07
Востаннє: 26.05.05
Повідомлень: 27892

2021-04-02 00:16  
Тему перенесено з Серіали в HD до форуму Мультсеріали в HD


leicheman

Anonymous 







2021-04-03 22:24  
+ 2 серія
zim333 
Поважний учасник


З нами з: 15.07.11
Востаннє: 12.04.21
Повідомлень: 165

2021-04-04 02:23  
Anonymous написано:
переклад: багатоголосий закадровий | DniproFilm

Ще би 1-2 сезони озвучили, було б взагалі прекрасно.

Дякую за реліз. Wink (2)

Anonymous 







2021-04-10 15:01  
+ 3 серія
Ваш часовий пояс: GMT + 2 Години

Нова тема   Відповісти