Віхола душ / Dveselu putenis (2019) 1080p Lat | sub Ukr

Нові коментарі

Нова тема   Відповісти
Автор Повідомлення
killer2015 
VIP


З нами з: 30.01.15
Востаннє: 11.04.21
Повідомлень: 451

2021-03-29 16:54  
Віхола душ / Dveselu putenis (2019) 1080p Lat | sub Ukr



Жанр: військовий, драма, історія
Країна: Латвія



Режисер: Дзінтарс Дрейберґс
Актори: Ото Брантевіцс, Раймонд Целмс, Мартіньш Вілсонс, Екабс Рейніс, Гатіс Гага, Ренарс Зелтіньш, Віліс Даудзіньш, Грета Трушина, Іева Флоренс, Резія Калниня

Сюжет:
На основі реальних подій. Перша світова війна. Шістнадцятирічний Артурс за призовом потрапляє на Східний фронт. Надто юний, аби воювати, але досить дорослий, аби загинути, він переживає втрату рідного дому та близьких людей. Тепер його дім – це поле битви. Юнак має знайти в собі сили швидко стати дорослим, адже половину населення Латвії забрала війна…


Тривалість: 02:03:04
Якість: 1080p
Відео:
кодек:
розмір кадру: 1920x804
бітрейт: 3 100 кб/с

Аудіо:
мова: латвійська
переклад: оригінал
кодек: 2.0
бітрейт: 256 кб/с

Субтитри:
мова: українська (аматорський переклад з російської - Neoblink)
тип: програмні (м'які)
формат: *.srt
МІ
General
Unique ID : 214346915564772758622167323250823130248 (0xA141B6DD8008D51B5AEDC5ED76B1EC88)
Complete name : G:\Фільми\Blizzard.of.Souls.2019.1080p.\Blizzard.of.Souls.2019.1080p..
Format :
Format version : Version 4
File size : 2.88 GiB
Duration : 2 h 3 min
Overall bit rate : 3 344 kb/s
Movie name : KinoPub: Метель душ / Dveselu putenis / 2019
Encoded date : UTC 2021-03-26 13:17:51
Writing application : v47.0.0 ('Black Flag') 64-bit
Writing library : libebml v1.3.10 + v1.5.2

Video
ID : 1
Format : AVC
Format/Info : Advanced Video Codec
Format profile : [email protected]
Format settings : CABAC / 4 Ref Frames
Format settings, CABAC : Yes
Format settings, Reference frames : 4 frames
Codec ID : V_MPEG4/ISO/AVC
Duration : 2 h 3 min
Bit rate : 3 100 kb/s
Width : 1 920 pixels
Height : 804 pixels
Display aspect ratio : 2.40:1
Frame rate mode : Constant
Frame rate : 25.000 FPS
Color space : YUV
Chroma subsampling : 4:2:0
Bit depth : 8 bits
Scan type : Progressive
Bits/(Pixel*Frame) : 0.080
Stream size : 2.65 GiB (92%)
Writing library : core 157 r2935 545de2f
Encoding settings : cabac=1 / ref=4 / deblock=1:-2:-2 / analyse=0x3:0x133 / me=umh / subme=10 / psy=1 / psy_rd=1.00:0.25 / mixed_ref=1 / me_range=24 / chroma_me=1 / trellis=2 / 8x8dct=1 / cqm=0 / deadzone=6,6 / fast_pskip=1 / chroma_qp_offset=-4 / threads=6 / lookahead_threads=1 / sliced_threads=0 / nr=0 / decimate=0 / interlaced=0 / bluray_compat=0 / constrained_intra=0 / bframes=8 / b_pyramid=2 / b_adapt=2 / b_bias=0 / direct=3 / weightb=1 / open_gop=0 / weightp=2 / keyint=250 / keyint_min=25 / scenecut=40 / intra_refresh=0 / rc_lookahead=60 / rc=2pass / mbtree=1 / bitrate=3100 / ratetol=1.0 / qcomp=0.75 / qpmin=0 / qpmax=69 / qpstep=4 / cplxblur=20.0 / qblur=0.5 / vbv_maxrate=25000 / vbv_bufsize=78125 / nal_hrd=none / filler=0 / ip_ratio=1.10 / aq=3:1.20
Language : Latvian
Default : Yes
Forced : No
Color range : Limited
Color primaries : BT.709
Transfer characteristics : BT.709
Matrix coefficients : BT.709

Audio
ID : 2
Format : AC-3
Format/Info : Audio Coding 3
Commercial name : Dolby Digital
Codec ID : A_AC3
Duration : 2 h 3 min
Bit rate mode : Constant
Bit rate : 256 kb/s
Channel(s) : 2 channels
Channel layout : L R
Sampling rate : 48.0 kHz
Frame rate : 31.250 FPS (1536 SPF)
Compression mode : Lossy
Stream size : 225 MiB (8%)
Language : Latvian
Service kind : Complete Main
Default : No
Forced : No
Скріншоти








Джерело:
Особиста оцінка: 10 - без зайвих вагань рекомендую всім!


 Трекер:    Зареєстрований   

Завантажити / скачати фільм українською



відео для новачків



 Зареєстрований:   2021-03-29 16:54
 Розмір:   2.88 GB 
 Оцінка фільму:   10/10 (Голосів: 4)
   
killer2015 
VIP


З нами з: 30.01.15
Востаннє: 11.04.21
Повідомлень: 451

2021-03-29 16:55  

Прем’єра (в Україні): 29.04.2021

igor911 
Модератор відео


З нами з: 18.01.08
Востаннє: 12.04.21
Повідомлень: 15842

2021-03-29 16:58  
killer2015 написано:

Аудіо:
мова: українська
переклад: оригінал


щось тут не те

killer2015 
VIP


З нами з: 30.01.15
Востаннє: 11.04.21
Повідомлень: 451

2021-03-29 17:01  
igor911
Забув виправити )

Вояка Schweik 
Поважний учасник


З нами з: 07.12.19
Востаннє: 12.04.21
Повідомлень: 187

2021-04-01 16:29  
А ще є шанс, що буде укр озвучка?
igor911 
Модератор відео


З нами з: 18.01.08
Востаннє: 12.04.21
Повідомлень: 15842

2021-04-01 16:30  
Вояка Schweik написано:
А ще є шанс, що буде укр озвучка?

killer2015 написано:
Прем’єра (в Україні): 29.04.2021

Вояка Schweik 
Поважний учасник


З нами з: 07.12.19
Востаннє: 12.04.21
Повідомлень: 187

2021-04-01 16:38  
igor911
О, дякую. Провтикав.

INTER-FAN 
Свій


З нами з: 26.01.10
Востаннє: 11.04.21
Повідомлень: 105

2021-04-07 20:57  
Як фільм люди, рейтинг виправданий?
killer2015 
VIP


З нами з: 30.01.15
Востаннє: 11.04.21
Повідомлень: 451

2021-04-10 16:46  
INTER-FAN
Мені сподобався. Атмосферний. Чимось нагадує - 1917 -.

Ваш часовий пояс: GMT + 2 Години

Нова тема   Відповісти