Юда і чорний месія / Judas and the Black Messiah (2021) AVC Eng | Sub Ukr/Eng

Нові коментарі

Нова тема   Відповісти
Автор Повідомлення
Anonymous 







2021-03-27 15:38  
Юда і чорний месія / Judas and the Black Messiah (2021) AVC Eng | Sub Ukr/Eng

Альтернативний постер:



Жанр: пропаганда, біографічний, драма, історичний, трилер
Країна: США



Кінокомпанія: BRON Studios, Bron Creative, MACRO, Participant, Proximity
Режисер: Шака Кінґ / Shaka King
Актори: Деніел Калуя, ЛейКіт Стенфілд, Джессі Племонс, Мартін Шин, Ештон Сандерс, Ліл Рел Гаврі, Домінік Фішбек, Роберт Лонгстріт, Даррел Брітт-Ґібсон, Жермен Фаулер та інші

Сюжет:
Злочинець Вільям О’Ніл в спробі уникнути ув’язнення погоджується на угоду з ФБР. Його відправляють стежити за діяльністю радикальної організації «Чорні пантери» в Чикаго. О’Ніл втирається в довіру до їхнього лідера Фреда Гемптона і починає сіяти розбрат зсередини.
Оригінальний трейлер:

Рейтинг MPAA: R - особам до 17 років обов'язкова присутність батьків або дорослого опікуна
Вікова категорія: 16+
Тривалість: 02:05:24
Якість: AVC [AMZN]
Відео:
кодек:
розмір кадру: 720х302
бітрейт: 1100 кб/с

Аудіо:
мова: англійська
переклад: оригінал
кодек: 2.0
бітрейт: 256 кб/с

Субтитри # 1:
мова: українська
тип: програмні (м'які)
формат: *.srt
переклад: офіційний, Олена Цехмейструк

Субтитри # 2-3:
мова: англійська (повні, SDH)
тип: програмні (м'які)
формат: *.srt
Info
Код:
General
Unique ID                   : 264227525871110912888222865592356408073 (0xC6C85ED3E34C7E082D88A040D3EF8B09)
Complete name               : Judas and the Black Messiah (2021) [Eng sub.Ukr,Eng] AVC [Hurtom].
Format                      :
Format version              : Version 4
File size                   : 1.19 GiB
Duration                    : 2 h 5 min
Overall bit rate            : 1 359 kb/s
Movie name                  : Юда і чорний месія / Judas and the Black Messiah (2021) [Eng sub.Ukr,Eng] AVC [Hurtom]
Encoded date                : UTC 2021-03-27 12:34:35
Writing application         : v55.0.0 ('Waiting For Space') 64-bit
Writing library             : libebml v1.4.2 + v1.6.4
Cover                       : Yes
Attachments                 : cover.jpg

Video
ID                          : 1
Format                      : AVC
Format/Info                 : Advanced Video Codec
Format profile              : [email protected]
Format settings             : CABAC / 5 Ref Frames
Format settings, CABAC      : Yes
Format settings, Reference  : 5 frames
Codec ID                    : V_MPEG4/ISO/AVC
Duration                    : 2 h 5 min
Bit rate                    : 1 100 kb/s
Width                       : 720 pixels
Height                      : 302 pixels
Display aspect ratio        : 2.40:1
Original display aspect rat : 2.40:1
Frame rate mode             : Constant
Frame rate                  : 23.976 (24000/1001) FPS
Color space                 : YUV
Chroma subsampling          : 4:2:0
Bit depth                   : 8 bits
Scan type                   : Progressive
Bits/(Pixel*Frame)          : 0.211
Stream size                 : 987 MiB (81%)
Title                       : Юда і чорний месія / Judas and the Black Messiah (2021) AVC [AMZN, ION10]
Writing library             : core 152 r2851M ba24899
Encoding settings           : cabac=1 / ref=5 / deblock=1:-1:-1 / analyse=0x3:0x113 / me=umh / subme=9 / psy=1 / psy_rd=1.00:0.15 / mixed_ref=1 / me_range=16 / chroma_me=1 / trellis=2 / 8x8dct=1 / cqm=0 / deadzone=21,11 / fast_pskip=1 / chroma_qp_offset=-3 / threads=16 / lookahead_threads=1 / sliced_threads=0 / nr=0 / decimate=1 / interlaced=0 / bluray_compat=0 / constrained_intra=0 / bframes=3 / b_pyramid=2 / b_adapt=2 / b_bias=0 / direct=3 / weightb=1 / open_gop=0 / weightp=2 / keyint=250 / keyint_min=23 / scenecut=40 / intra_refresh=0 / rc_lookahead=50 / rc=2pass / mbtree=1 / bitrate=1100 / ratetol=1.0 / qcomp=0.60 / qpmin=0 / qpmax=69 / qpstep=4 / cplxblur=20.0 / qblur=0.5 / ip_ratio=1.40 / aq=1:1.00
Language                    : English
Default                     : Yes
Forced                      : No

Audio
ID                          : 2
Format                      : LC
Format/Info                 : Advanced Audio Codec Low Complexity
Codec ID                    : A_AAC-2
Duration                    : 2 h 5 min
Bit rate                    : 256 kb/s
Channel(s)                  : 2 channels
Channel layout              : L R
Sampling rate               : 48.0 kHz
Frame rate                  : 46.875 FPS (1024 SPF)
Compression mode            : Lossy
Delay relative to video     : -43 ms
Stream size                 : 230 MiB (19%)
Language                    : English
Default                     : Yes
Forced                      : No

Text #1
ID                          : 3
Format                      : UTF-8
Codec ID                    : S_TEXT/UTF8
Codec ID/Info               : UTF-8 Plain Text
Duration                    : 2 h 4 min
Bit rate                    : 99 b/s
Count of elements           : 1791
Stream size                 : 91.1 KiB (0%)
Title                       : Ukr Full [Official]
Language                    : Ukrainian
Default                     : Yes
Forced                      : Yes

Text #2
ID                          : 4
Format                      : UTF-8
Codec ID                    : S_TEXT/UTF8
Codec ID/Info               : UTF-8 Plain Text
Duration                    : 2 h 3 min
Bit rate                    : 69 b/s
Count of elements           : 1846
Stream size                 : 62.6 KiB (0%)
Title                       : Eng Full
Language                    : English
Default                     : No
Forced                      : No

Text #3
ID                          : 5
Format                      : UTF-8
Codec ID                    : S_TEXT/UTF8
Codec ID/Info               : UTF-8 Plain Text
Duration                    : 2 h 3 min
Bit rate                    : 78 b/s
Count of elements           : 2102
Stream size                 : 70.6 KiB (0%)
Title                       : Eng SDH
Language                    : English
Default                     : No
Forced                      : No



Джерело: &
Подяка за надані субтитри п.sub.Trader (subscene.com)


 Трекер:    Зареєстрований   

Завантажити / скачати фільм українською



відео для новачків



 Зареєстрований:   2021-03-27 15:38
 Розмір:   1.19 GB 
 Оцінка фільму:   10/10 (Голосів: 4)
 ЗАЛИШАЙТЕСЬ ЯКОМОГА ДОВШЕ НА РОЗДАЧІ! ЗАВАНТАЖИВ САМ - ДАЙ ЗАВАНТАЖИТИ ІНШИМ!
   
Інші релізи
Ваш часовий пояс: GMT + 2 Години

Нова тема   Відповісти