Юда і чорний месія / Judas and the Black Messiah (2021) 1080p Eng | Sub Ukr/Eng

Нові коментарі

Нова тема   Відповісти
Автор Повідомлення
Anonymous 







2021-03-27 13:19  
Юда і чорний месія / Judas and the Black Messiah (2021) 1080p Eng | Sub Ukr/Eng

Альтернативний постер:



Жанр: пропаганда, біографічний, драма, історичний, трилер
Країна: США



Кінокомпанія: BRON Studios, Bron Creative, MACRO, Participant, Proximity
Режисер: Шака Кінґ / Shaka King
Актори: Деніел Калуя, ЛейКіт Стенфілд, Джессі Племонс, Мартін Шин, Ештон Сандерс, Ліл Рел Гаврі, Домінік Фішбек, Роберт Лонгстріт, Даррел Брітт-Ґібсон, Жермен Фаулер та інші

Сюжет:
Злочинець Вільям О’Ніл в спробі уникнути ув’язнення погоджується на угоду з ФБР. Його відправляють стежити за діяльністю радикальної організації «Чорні пантери» в Чикаго. О’Ніл втирається в довіру до їхнього лідера Фреда Гемптона і починає сіяти розбрат зсередини.
Оригінальний трейлер:

Рейтинг MPAA: R - особам до 17 років обов'язкова присутність батьків або дорослого опікуна
Вікова категорія: 16+
Тривалість: 02:05:24
Якість: 1080p [AMZN]
Відео:
кодек:
розмір кадру: 1920х800
бітрейт: 7371 кб/с

Аудіо:
мова: англійська
переклад: оригінал
кодек: E- 5.1
бітрейт: 768 кб/с

Субтитри # 1:
мова: українська
тип: програмні (м'які)
формат: *.srt
переклад: офіційний, Олена Цехмейструк

Субтитри # 2-3:
мова: англійська (повні, SDH)
тип: програмні (м'які)
формат: *.srt
Info
Код:
General
Unique ID                   : 28077047008230579443906789855683533118 (0x151F714B806452E24FCB552495DDD93E)
Complete name               : Judas and the Black Messiah (2021) [Eng sub.Ukr,Eng] 1080p [Hurtom].
Format                      :
Format version              : Version 4
File size                   : 7.13 GiB
Duration                    : 2 h 5 min
Overall bit rate            : 8 142 kb/s
Movie name                  : Юда і чорний месія / Judas and the Black Messiah (2021) [Eng sub.Ukr,Eng] 1080p [Hurtom]
Encoded date                : UTC 2021-03-27 11:56:18
Writing application         : v55.0.0 ('Waiting For Space') 64-bit
Writing library             : libebml v1.4.2 + v1.6.4
Cover                       : Yes
Attachments                 : cover.jpg

Video
ID                          : 1
Format                      : AVC
Format/Info                 : Advanced Video Codec
Format profile              : [email protected]
Format settings             : CABAC / 4 Ref Frames
Format settings, CABAC      : Yes
Format settings, Reference  : 4 frames
Codec ID                    : V_MPEG4/ISO/AVC
Duration                    : 2 h 5 min
Bit rate mode               : Constant
Bit rate                    : 7 371 kb/s
Nominal bit rate            : 10 000 kb/s
Width                       : 1 920 pixels
Height                      : 800 pixels
Display aspect ratio        : 2.40:1
Frame rate mode             : Constant
Frame rate                  : 23.976 (24000/1001) FPS
Color space                 : YUV
Chroma subsampling          : 4:2:0
Bit depth                   : 8 bits
Scan type                   : Progressive
Bits/(Pixel*Frame)          : 0.200
Stream size                 : 6.46 GiB (91%)
Title                       : Юда і чорний месія / Judas and the Black Messiah (2021) 1080p [AMZN, NTb]
Language                    : English
Default                     : Yes
Forced                      : No
Color range                 : Limited
Color primaries             : BT.709
Transfer characteristics    : BT.709
Matrix coefficients         : BT.709

Audio
ID                          : 2
Format                      : E-AC-3 JOC
Format/Info                 : Enhanced AC-3 with Joint Object Coding
Commercial name             : Dolby Digital Plus with Dolby Atmos
Codec ID                    : A_EAC3
Duration                    : 2 h 5 min
Bit rate mode               : Constant
Bit rate                    : 768 kb/s
Channel(s)                  : 6 channels
Channel layout              : L R C LFE Ls Rs
Sampling rate               : 48.0 kHz
Frame rate                  : 31.250 FPS (1536 SPF)
Compression mode            : Lossy
Stream size                 : 689 MiB (9%)
Language                    : English
Service kind                : Complete Main
Default                     : Yes
Forced                      : No
Complexity index            : 16
Number of dynamic objects   : 15
Bed channel count           : 1 channel
Bed channel configuration   : LFE

Text #1
ID                          : 3
Format                      : UTF-8
Codec ID                    : S_TEXT/UTF8
Codec ID/Info               : UTF-8 Plain Text
Duration                    : 2 h 4 min
Bit rate                    : 99 b/s
Count of elements           : 1791
Stream size                 : 91.1 KiB (0%)
Title                       : Ukr Full [Official]
Language                    : Ukrainian
Default                     : Yes
Forced                      : Yes

Text #2
ID                          : 4
Format                      : UTF-8
Codec ID                    : S_TEXT/UTF8
Codec ID/Info               : UTF-8 Plain Text
Duration                    : 2 h 3 min
Bit rate                    : 69 b/s
Count of elements           : 1846
Stream size                 : 62.6 KiB (0%)
Title                       : Eng Full
Language                    : English
Default                     : No
Forced                      : No

Text #3
ID                          : 5
Format                      : UTF-8
Codec ID                    : S_TEXT/UTF8
Codec ID/Info               : UTF-8 Plain Text
Duration                    : 2 h 3 min
Bit rate                    : 78 b/s
Count of elements           : 2102
Stream size                 : 70.6 KiB (0%)
Title                       : Eng SDH
Language                    : English
Default                     : No
Forced                      : No
Скріншоти


Джерело: &
Подяка за надані субтитри п.sub.Trader (subscene.com)


 Трекер:    Зареєстрований   

Завантажити / скачати фільм українською



відео для новачків



 Зареєстрований:   2021-03-27 15:16
 Розмір:   7.13 GB 
 Оцінка фільму:   -/10 (Голосів: 0)
 ЗАЛИШАЙТЕСЬ ЯКОМОГА ДОВШЕ НА РОЗДАЧІ! ЗАВАНТАЖИВ САМ - ДАЙ ЗАВАНТАЖИТИ ІНШИМ!
   
Інші релізи
bot 
робот


З нами з: 30.09.07
Востаннє: 26.05.05
Повідомлень: 27892

2021-03-27 15:16  
Тему перенесено з Анонси релізів до форуму Фільми


igor911

Ваш часовий пояс: GMT + 2 Години

Нова тема   Відповісти