Динозавр / Dinosaur (2000) AVC Ukr/Eng | sub Ukr/Eng

Нові коментарі

Нова тема   Відповісти
Автор Повідомлення
Arsenfpu 
Відео Гуртом - фільмокрай
Відео Гуртом - фільмокрай


З нами з: 30.04.09
Востаннє: 22.04.21
Повідомлень: 8184

2021-03-27 01:22  
Динозавр / Dinosaur (2000) AVC Ukr/Eng | sub Ukr/Eng

Динозавр / Dinosaur (2000) AVC Ukr/Eng | sub Ukr/Eng


Жанр: анімаційний, пригодницький, сімейний
Країна: США



Кінокомпанія: Walt Disney
Режисер: Ерік Лейтон, Ральф Зондаґ
Ролі озвучують: Д.Б. Свіні, Елфрі Вудард, Оссі Девіс, Макс Каселла, Хайден Панеттьері, Семюел Е. Райт, Джуліанна Маргуліс, Пітер Сірагуса, Джоан Плаурайт, Делла Різ

Сюжет:
Зворушлива історія про головного героя мультфільму, динозавра-ігуанодонта на ім’я Аладар, який вилупився з яйця і виріс серед лемурів. Протягом усього мультфільму ми стежитимемо за тим, як на нього та його друзів, які йому як рідні, спіткатиме лихо. Почне падати метеоритний дощ, знищуючи все довкола. Але, втікаючи, їм вдасться врятуватися від нищівної стихії, а згодом, отямившись, вони вирушать у мандрівку на пошуки місця, де кращі умови для життя. Пізніше вони зустрінуться з іншими динозаврами та приєднаються до них задля спільної мети. Разом вони долатимуть на своєму шляху неймовірні труднощі, серед яких їх найстрашніший ворог – карнотаври.


Тривалість: 01:22:05
Якість:
Відео:
кодек:
розмір кадру: 1 024х 554
бітрейт: 1 852 кб/с

Аудіо # 1:
мова: українська
переклад: професійний дубльований
кодек: 2.0
бітрейт: 192 кб/с

Аудіо # 2:
мова: англійська
переклад: оригінал
кодек: 2.0
бітрейт: 192 кб/с

Субтитри:
мова: українська
тип: програмні (м'які)
формат: *.srt

Субтитри:
мова: англійська
тип: програмні (м'які)
формат: *.srt
Скріншоти














Про файл
General
Unique ID : 337853990237352754668181220290301449358 (0xFE2C4FC9238215627043ABDCF9B2D48E)
Complete name : D:\Dinosaur (2000) [Ukr,Eng] AVC [Hurtom].
Format :
Format version : Version 4
File size : 1.28 GiB
Duration : 1 h 22 min
Overall bit rate : 2 238 kb/s
Movie name : Динозавр / Dinosaur (2000)
Encoded date : UTC 2021-03-26 22:15:41
Writing application : v53.0.0 ('Fool's Gold') 64-bit
Writing library : libebml v1.4.1 + v1.6.2
Cover : Yes
Attachments : cover.jpg

Video
ID : 1
Format : AVC
Format/Info : Advanced Video Codec
Format profile : [email protected]
Format settings : CABAC / 5 Ref Frames
Format settings, CABAC : Yes
Format settings, Reference : 5 frames
Codec ID : V_MPEG4/ISO/AVC
Duration : 1 h 22 min
Bit rate : 1 852 kb/s
Width : 1 024 pixels
Height : 554 pixels
Display aspect ratio : 1.85:1
Frame rate mode : Constant
Frame rate : 23.976 (24000/1001) FPS
Color space : YUV
Chroma subsampling : 4:2:0
Bit depth : 8 bits
Scan type : Progressive
Bits/(Pixel*Frame) : 0.136
Stream size : 1.06 GiB (83%)
Writing library : core 114 r1913 5fd3dce
Encoding settings : cabac=1 / ref=5 / deblock=1:-1:-1 / analyse=0x3:0x133 / me=umh / subme=10 / psy=1 / psy_rd=1.00:0.20 / mixed_ref=1 / me_range=48 / chroma_me=1 / trellis=2 / 8x8dct=1 / cqm=0 / deadzone=21,11 / fast_pskip=0 / chroma_qp_offset=2 / threads=3 / sliced_threads=0 / nr=0 / decimate=1 / interlaced=0 / constrained_intra=0 / bframes=5 / b_pyramid=2 / b_adapt=2 / b_bias=0 / direct=3 / weightb=1 / open_gop=0 / weightp=2 / keyint=250 / keyint_min=23 / scenecut=40 / intra_refresh=0 / rc_lookahead=40 / rc=2pass / mbtree=1 / bitrate=1852 / ratetol=1.0 / qcomp=0.60 / qpmin=0 / qpmax=51 / qpstep=4 / cplxblur=20.0 / qblur=0.5 / ip_ratio=1.40 / aq=1:1.00
Language : English
Default : No
Forced : No
Color range : Limited
Matrix coefficients : BT.709

Audio #1
ID : 2
Format : AC-3
Format/Info : Audio Coding 3
Commercial name : Dolby Digital
Codec ID : A_AC3
Duration : 1 h 21 min
Bit rate mode : Constant
Bit rate : 192 kb/s
Channel(s) : 2 channels
Channel layout : L R
Sampling rate : 48.0 kHz
Frame rate : 31.250 FPS (1536 SPF)
Compression mode : Lossy
Stream size : 113 MiB (9%)
Language : Ukrainian
Service kind : Complete Main
Default : Yes
Forced : Yes

Audio #2
ID : 3
Format : AC-3
Format/Info : Audio Coding 3
Commercial name : Dolby Digital
Codec ID : A_AC3
Duration : 1 h 21 min
Bit rate mode : Constant
Bit rate : 192 kb/s
Channel(s) : 2 channels
Channel layout : L R
Sampling rate : 48.0 kHz
Frame rate : 31.250 FPS (1536 SPF)
Compression mode : Lossy
Stream size : 113 MiB (9%)
Language : English
Service kind : Complete Main
Default : No
Forced : No

Text #1
ID : 4
Format : UTF-8
Codec ID : S_TEXT/UTF8
Codec ID/Info : UTF-8 Plain Text
Duration : 1 h 14 min
Bit rate : 53 b/s
Count of elements : 492
Stream size : 29.3 KiB (0%)
Language : Ukrainian
Default : Yes
Forced : No

Text #2
ID : 5
Format : UTF-8
Codec ID : S_TEXT/UTF8
Codec ID/Info : UTF-8 Plain Text
Duration : 1 h 14 min
Bit rate : 31 b/s
Count of elements : 491
Stream size : 17.0 KiB (0%)
Language : English
Default : No
Forced : No
Джерело:
За субтитри дякую пану Денису Тороватову
Особиста оцінка: не дивився


Срібний реліз (на рейтинг впливає 50% завантаженого)
 Трекер:    Зареєстрований   

Завантажити / скачати мультфільм українською



відео для новачків



 Зареєстрований:   2021-03-27 01:22
 Розмір:   1.28 GB 
 Оцінка мультфільму:   10/10 (Голосів: 12)
   
Інші релізи
   Динозавр / Dinosaur (2000) 720p Ukr/Eng | Sub Ukr/Eng igor911  8 / 0   2.38 GB   2021-03-27 21:32 
   Динозавр / Dinosaur (2000) Remux 1080p Ukr/Eng | Sub Ukr/Eng igor911  4 / 0   13.51 GB   2021-03-27 11:41 
   Динозавр / Dinosaur (2000) 1080p H.265 Ukr/Eng | Sub Ukr/Eng -Star-Lord-  4 / 0   3.9 GB   2021-03-27 03:43 
   Динозавр / Dinosaur (2000) 1080p Ukr/Eng | Sub Ukr/Eng igor911  6 / 0   6.92 GB   2021-03-27 03:34 
   Динозавр / Dinosaur (2000) Eng | sub Ukr/Eng Toris  5 / 0   782 MB   2013-08-03 21:49 
MutuLI 
Відео Гуртом - фільмокрай
Відео Гуртом - фільмокрай


З нами з: 08.03.09
Востаннє: 22.04.21
Повідомлень: 2162

2021-03-27 10:30  
мультфільм топчик, дивитись всім.
Tinlm jkjho 
Новенький


З нами з: 07.02.21
Востаннє: 22.04.21
Повідомлень: 15

2021-03-27 15:47  
Піноккіо (1940) (укр дубляж вже є
Бембі (1942) ( укр дубляж вже є)
Лис і Пес (1981)
Останні мультфільми дісней ( за винятком dvd сіквелів) що поки не мають укр дубляжу в інтернеті

alfaS 
Новенький


З нами з: 19.11.11
Востаннє: 21.04.21
Повідомлень: 2

2021-04-21 19:38  
Не працює українська доріжка
MutuLI 
Відео Гуртом - фільмокрай
Відео Гуртом - фільмокрай


З нами з: 08.03.09
Востаннє: 22.04.21
Повідомлень: 2162

2021-04-21 19:48  
alfaS написано:
Не працює українська доріжка

все працює. Шукайте причину в себе, спробуйте переключити доріжку або відкрити іншим програвачем.

Ваш часовий пояс: GMT + 2 Години

Нова тема   Відповісти