Хлопці що треба / The Right Stuff (1983) AVC Eng | Sub Ukr/Eng

Нові коментарі

Нова тема   Відповісти
Автор Повідомлення
Anonymous 







2021-03-26 09:27  
Хлопці що треба / The Right Stuff (1983) AVC Eng | Sub Ukr/Eng

Оригінальний постер:



Жанр: пригодницький, драма, біографічний, історичний
Країна: США

4 Оскари



Кінокомпанія: The Ladd Company
Режисери: Філіп Кауфман / Philip Kaufman
Актори: Сем Шепард, Скот Ґленн, Ед Гарріс, Деніс Квейд, Фред Ворд, Барбара Герші, Кім Стенлі, Вероніка Картрайт, Памела Рід та інші

Сюжет:
1953 рік. Карибське море… Реактивний літак злітає з борту авіаносця, він просто зникає в небі. Прилади фіксують: він перейшов межу швидкості звуку... Ця картина - фрагментарна історія американської астронавтики з 1947 по 1963 рік, коли після довгих і трагічних випробувань, американці нарешті вийшли в космос.
Офіційний трейлер:


Тривалість: 03:12:44
Якість: AVC
Відео:
кодек:
розмір кадру: 1024х576
бітрейт: 3500 кб/с

Аудіо:
мова: англійська
переклад: оригінал
кодек: 5.1
бітрейт: 640 кб/с

Субтитри # 1:
мова: українська
тип: програмні (м'які)
формат: *.srt

Субтитри # 2 - 3:
мова: англійська (повні, SDH)
тип: програмні (м'які)
формат: *.srt

Збережено оригінальні розділи, як на Blu-ray
Info
Код:
General
Unique ID                   : 144792936793501860425245057769722391858 (0x6CEE1AF30438B00D43CEFDD7C544AD32)
Complete name               : The Right Stuff (1983) [Eng sub.Ukr,Eng] AVC [Hurtom].
Format                      :
Format version              : Version 4
File size                   : 5.57 GiB
Duration                    : 3 h 12 min
Overall bit rate            : 4 140 kb/s
Movie name                  : Хлопці що треба / The Right Stuff (1983) [Eng sub.Ukr,Eng] AVC [Hurtom]
Encoded date                : UTC 2021-03-27 11:13:20
Writing application         : v55.0.0 ('Waiting For Space') 64-bit
Writing library             : libebml v1.4.2 + v1.6.4
Cover                       : Yes
Attachments                 : cover.jpg

Video
ID                          : 1
Format                      : AVC
Format/Info                 : Advanced Video Codec
Format profile              : [email protected]
Format settings             : CABAC / 10 Ref Frames
Format settings, CABAC      : Yes
Format settings, Reference  : 10 frames
Codec ID                    : V_MPEG4/ISO/AVC
Duration                    : 3 h 12 min
Bit rate                    : 3 500 kb/s
Width                       : 1 024 pixels
Height                      : 576 pixels
Display aspect ratio        : 16:9
Frame rate mode             : Constant
Frame rate                  : 23.976 (24000/1001) FPS
Color space                 : YUV
Chroma subsampling          : 4:2:0
Bit depth                   : 8 bits
Scan type                   : Progressive
Bits/(Pixel*Frame)          : 0.247
Stream size                 : 4.71 GiB (84%)
Title                       : Хлопці що треба / The Right Stuff (1983) AVC [MediaClub - Odessit]
Writing library             : core 130 r2273 b3065e6
Encoding settings           : cabac=1 / ref=10 / deblock=1:-2:-2 / analyse=0x3:0x133 / me=umh / subme=11 / psy=1 / psy_rd=1.00:0.20 / mixed_ref=1 / me_range=48 / chroma_me=1 / trellis=2 / 8x8dct=1 / cqm=0 / deadzone=21,11 / fast_pskip=0 / chroma_qp_offset=-3 / threads=6 / lookahead_threads=1 / sliced_threads=0 / nr=0 / decimate=0 / interlaced=0 / bluray_compat=0 / constrained_intra=0 / bframes=9 / b_pyramid=2 / b_adapt=2 / b_bias=0 / direct=3 / weightb=1 / open_gop=0 / weightp=2 / keyint=240 / keyint_min=23 / scenecut=40 / intra_refresh=0 / rc=2pass / mbtree=0 / bitrate=3500 / ratetol=1.0 / qcomp=0.60 / qpmin=0 / qpmax=69 / qpstep=4 / cplxblur=20.0 / qblur=0.5 / ip_ratio=1.40 / pb_ratio=1.30 / aq=1:1.00
Language                    : English
Default                     : Yes
Forced                      : No

Audio
ID                          : 2
Format                      : AC-3
Format/Info                 : Audio Coding 3
Commercial name             : Dolby Digital
Codec ID                    : A_AC3
Duration                    : 3 h 12 min
Bit rate mode               : Constant
Bit rate                    : 640 kb/s
Channel(s)                  : 6 channels
Channel layout              : L R C LFE Ls Rs
Sampling rate               : 48.0 kHz
Frame rate                  : 31.250 FPS (1536 SPF)
Compression mode            : Lossy
Stream size                 : 882 MiB (15%)
Title                       : Original, 5.1 640 Kbps
Language                    : English
Service kind                : Complete Main
Default                     : Yes
Forced                      : No

Text #1
ID                          : 3
Format                      : UTF-8
Codec ID                    : S_TEXT/UTF8
Codec ID/Info               : UTF-8 Plain Text
Duration                    : 3 h 8 min
Bit rate                    : 70 b/s
Count of elements           : 1790
Stream size                 : 97.0 KiB (0%)
Title                       : Ukr Full [iTunes]
Language                    : Ukrainian
Default                     : Yes
Forced                      : Yes

Text #2
ID                          : 4
Format                      : UTF-8
Codec ID                    : S_TEXT/UTF8
Codec ID/Info               : UTF-8 Plain Text
Duration                    : 3 h 6 min
Bit rate                    : 44 b/s
Count of elements           : 1870
Stream size                 : 60.4 KiB (0%)
Title                       : Eng Full
Language                    : English
Default                     : No
Forced                      : No

Text #3
ID                          : 5
Format                      : UTF-8
Codec ID                    : S_TEXT/UTF8
Codec ID/Info               : UTF-8 Plain Text
Duration                    : 3 h 6 min
Bit rate                    : 48 b/s
Count of elements           : 2083
Stream size                 : 66.6 KiB (0%)
Title                       : Eng SDH
Language                    : English
Default                     : No
Forced                      : No

Menu
00:00:00.000                : en:00:00:00.000
00:05:05.222                : en:00:05:05.222
00:07:22.609                : en:00:07:22.609
00:11:22.807                : en:00:11:22.807
00:14:10.600                : en:00:14:10.600
00:22:54.373                : en:00:22:54.373
00:25:25.023                : en:00:25:25.023
00:29:12.376                : en:00:29:12.376
00:31:58.416                : en:00:31:58.416
00:35:51.608                : en:00:35:51.608
00:39:23.278                : en:00:39:23.278
00:43:34.445                : en:00:43:34.445
00:49:38.142                : en:00:49:38.142
00:54:09.329                : en:00:54:09.329
00:56:23.463                : en:00:56:23.463
00:58:15.409                : en:00:58:15.409
01:07:14.989                : en:01:07:14.989
01:11:16.606                : en:01:11:16.606
01:13:13.723                : en:01:13:13.723
01:17:20.386                : en:01:17:20.386
01:26:16.588                : en:01:26:16.588
01:28:46.863                : en:01:28:46.863
01:30:54.783                : en:01:30:54.783
01:37:39.187                : en:01:37:39.187
01:41:49.729                : en:01:41:49.729
01:43:32.498                : en:01:43:32.498
01:45:33.202                : en:01:45:33.202
01:46:36.932                : en:01:46:36.932
01:50:20.614                : en:01:50:20.614
01:54:11.261                : en:01:54:11.261
02:00:15.125                : en:02:00:15.125
02:05:47.999                : en:02:05:47.999
02:13:58.197                : en:02:13:58.197
02:19:03.961                : en:02:19:03.961
02:24:44.801                : en:02:24:44.801
02:26:43.878                : en:02:26:43.878
02:33:37.291                : en:02:33:37.291
02:34:59.957                : en:02:34:59.957
02:39:02.408                : en:02:39:02.408
02:44:25.481                : en:02:44:25.481
02:45:58.907                : en:02:45:58.907
02:52:46.606                : en:02:52:46.606
02:56:24.616                : en:02:56:24.616
02:58:56.142                : en:02:58:56.142
03:03:40.801                : en:03:03:40.801
03:06:29.553                : en:03:06:29.553
Скріншоти
Джерело: &
Подяка п.leicheman'у за українські субтитри та постер.

* при появі українського озвучення реліз буде оновлено.


Срібний реліз (на рейтинг впливає 50% завантаженого)
 Трекер:    Зареєстрований   

Завантажити / скачати фільм українською



відео для новачків



 Зареєстрований:   2021-03-27 14:45
 Розмір:   5.57 GB 
 Оцінка фільму:   10/10 (Голосів: 1)
 ЗАЛИШАЙТЕСЬ ЯКОМОГА ДОВШЕ НА РОЗДАЧІ! ЗАВАНТАЖИВ САМ - ДАЙ ЗАВАНТАЖИТИ ІНШИМ!
   
Інші релізи
leicheman 
Відео Гуртом - фільмокрай
Відео Гуртом - фільмокрай


З нами з: 03.07.14
Востаннє: 14.04.21
Повідомлень: 6117

2021-03-26 09:45  
укр.постер

bot 
робот


З нами з: 30.09.07
Востаннє: 26.05.05
Повідомлень: 27892

2021-03-27 14:45  
Тему перенесено з Анонси релізів до форуму Фільми


igor911

Ваш часовий пояс: GMT + 2 Години

Нова тема   Відповісти