Delorian - It Is Time (2021) [] | Symphonic Metal

Нові коментарі

Нова тема   Відповісти
Автор Повідомлення
kolpavel 
VIP


З нами з: 04.05.14
Востаннє: 16.04.21
Повідомлень: 1395

2021-03-22 17:42  
Delorian - It Is Time (2021) [] | Symphonic Metal

Delorian - It Is Time (2021) [] | Symphonic Metal


Стиль: Symphonic Metal
Країна, місто: Україна, Харкiв
Видавець: MOON Records Audio
Виконавці:
- Theo Ruzhynsky,
- Alex Pivovarov
- Yaros Krasse

Пісні:
01 - Say It (00:05:22)
02 - Following The Sun (00:04:06)
03 - Child Of Time (00:05:56)
04 - Far Away (00:06:34)
05 - Unveil (00:05:00)
06 - Slave Of Yesterday (00:07:06)
07 - Not Alone (00:06:06)
08 - The Dawn (00:05:20)
09 - Outro (00:01:51)

Тривалість: 00:47:23
Мова: англiйська
Аудіо-кодек:
Бітрейт: 827-1012 кб/с
Джерело: трекер
Додаткова інформація:
Лог DRM
foobar2000 1.4.2 / Dynamic Range Meter 1.1.1
log date: 2021-03-21 11:56:02

--------------------------------------------------------------------------------
Analyzed: Delorian / It Is Time
--------------------------------------------------------------------------------

DR Peak RMS Duration Track
--------------------------------------------------------------------------------
DR9 -0.10 dB -11.49 dB 5:23 01-Say It
DR8 -0.10 dB -10.14 dB 4:06 02-Following the Sun
DR8 -0.10 dB -9.90 dB 5:56 03-Child of Time
DR8 -0.10 dB -10.38 dB 6:34 04-Far Away
DR8 -0.10 dB -10.39 dB 5:00 05-Unveil
DR9 0.00 dB -10.74 dB 7:06 06-Slave of Yesterday
DR9 -0.10 dB -10.44 dB 6:06 07-Not Alone
DR9 -0.10 dB -10.55 dB 5:21 08-The Dawn
DR11 -0.10 dB -15.08 dB 1:51 09-Outro
--------------------------------------------------------------------------------

Number of tracks: 9
Official DR value: DR9

Samplerate: 44100 Hz
Channels: 2
Bits per sample: 16
Bitrate: 827 kbps
Codec:
================================================================================
Лог якстi

-----------------------

DON'T MODIFY THIS FILE

-----------------------

PERFORMER: auCDtect Task Manager, ver. 1.6.0 RC1 build 1.6.0.1
Copyright (c) 2008-2010 y-soft. All rights reserved
http://y-soft.org

ANALYZER: auCDtect: CD records authenticity detector, version 0.8.2
Copyright (c) 2004 Oleg Berngardt. All rights reserved.
Copyright (c) 2004 Alexander Djourik. All rights reserved.

FILE: 09 - Outro.
Size: 11558688 Hash: 18962A2939EB286155489219DE567B12 Accuracy: -m40
Conclusion: CDDA 99%
Signature: 932015BEA45A74EB19280ECD6460D4AACE5FD536
FILE: 08 - The Dawn.
Size: 40636909 Hash: 139C8A425146DEED7903DCEBCE8877A9 Accuracy: -m40
Conclusion: CDDA 100%
Signature: 811DE640E011806A58BEAFAC580A1D363FFA65AA
FILE: 07 - Not Alone.
Size: 45893751 Hash: 3475BCB3800948922572D9EB660CA5FC Accuracy: -m40
Conclusion: CDDA 100%
Signature: 54F80CE2D971D7AF2816B931D4CA6B3E0C4B9837
FILE: 06 - Slave of Yesterday.
Size: 51413654 Hash: DEE857AD7B760F2830FCD726CA29FC03 Accuracy: -m40
Conclusion: CDDA 100%
Signature: 62B893771AE65EEFFD31F4AA6F2399DB442198F4
FILE: 05 - Unveil.
Size: 37125538 Hash: 3E362363193961F9EB3C3C72BCD5E645 Accuracy: -m40
Conclusion: CDDA 100%
Signature: D91164F38073A121CFF14962EBD09DAA66AFF6F5
FILE: 04 - Far Away.
Size: 45699213 Hash: A227D0593AD088FD8591CCCCE29C190A Accuracy: -m40
Conclusion: CDDA 100%
Signature: C32DD2B9EC0D05B3D0045F30F799087587668366
FILE: 03 - Child of Time.
Size: 43710529 Hash: DF5B519A570BBF1961648ABC29A37668 Accuracy: -m40
Conclusion: CDDA 100%
Signature: 6E25972E67D8A8ECE77AC6A9B65F56DBE01D56DF
FILE: 02 - Following the Sun.
Size: 30421391 Hash: E867B0622CF93B2C97D93C4C5AA7CD8A Accuracy: -m40
Conclusion: CDDA 100%
Signature: 9F899351167D64E47E33584C5E1090B9A550A930
FILE: 01 - Say It.
Size: 37278575 Hash: D41FD76EBBE03A4D1492B8A18B906CF5 Accuracy: -m40
Conclusion: CDDA 100%
Signature: 50E62CCE89F3626C9E169D4BAEB904D4BBF03D12


Якщо Ви справді бажаєте підтримати українське - після прослуховування, якщо музика вам сподобалась, придбайте ліцензійний диск. Підтримаймо вітчизняних виконавців!


Срібний реліз (на рейтинг впливає 50% завантаженого)
 Трекер:    Зареєстрований   

Завантажити / скачати українську музику



відео для новачків



 Зареєстрований:   2021-03-22 18:19
 Розмір:   328 MB 
 Оцінка музики:   9.5/10 (Голосів: 2)
   
kolpavel 
VIP


З нами з: 04.05.14
Востаннє: 16.04.21
Повідомлень: 1395

2021-03-22 18:26  
Ваш часовий пояс: GMT + 2 Години

Нова тема   Відповісти