Упс! Пригоди тривають... (Two by Two: Overboard!) / Ooops! The Adventure Continues… (2020) AVC Ukr/Eng | Sub Eng

Нові коментарі

Нова тема   Відповісти
Автор Повідомлення
Anonymous 







2021-03-21 19:24  
Упс! Пригоди тривають... / Ooops! The Adventure Continues… (2020) AVC Ukr/Eng | Sub Eng


Жанр: анімаційний, комедія, пригодницький, сімейний
Країна: Ірландія, Люксембург



Кінокомпанія: Ulysses Filmproduktion, Ulysses Filmproduktion, Fabrique d'Images
Режисери: Шон Маккормак, Тоби Генкель
Актори: Макс Керолан, Ейва Конноллі, Дермот Маґенніс, Тара Флінн, Пол Тайлак, Крістіан Ульмен, Люк Ґріффін та інші.

Сюжет:
Молодий нестріан Фінні і його найкраща подруга Лія випадково впали з ковчега і були викинуті в море. Проплив деякий час на плоту, незабаром їх розділяє шторм. Поки Фінні знаходить під водою цілу колонію таких же нестріанцев як і він, Лія опиняється на прекрасному острові. Якби тільки новознайдена земля НЕ тряслася так регулярно і з вершини її гори не виходив би дим?
Офіційний український трейлер:



Вікова категорія: 2+

Тривалість: 01:26:26
Якість: AVC [ріп від Hurtom]
Відео:
кодек:
розмір кадру: 1024x552
бітрейт: 2147 кб/с

Аудіо # 1:
мова: українська
озвучення: професійне дубльоване
кодек: 2.0 [стерео]
бітрейт: 192 кб/с

Аудіо # 3:
мова: англійська
озвучення: оригінал
кодек: 5.1
бітрейт: 448 кб/с

Субтитри # 1-2:
мова: англійська (повні, SDH)
тип: програмні (м'які)
формат: *.srt
Info та log:
Код:
General
Unique ID                   : 260172165770670088813890969822099368 (0x321B7A673B6E4536B678AF5944F7A8)
Complete name               : Ooops! The Adventure Continues… (2020) [Ukr,Eng sub.Eng] AVC [Hurtom].
Format                      :
Format version              : Version 4
File size                   : 1.68 GiB
Duration                    : 1 h 26 min
Overall bit rate            : 2 789 kb/s
Movie name                  : Упс! Пригоди тривають... / Two by Two: Overboard! / Ooops! The Adventure Continues… (2020) [Ukr,Eng sub.Eng] AVC [AMZN, Hurtom]
Encoded date                : UTC 2021-03-22 13:15:56
Writing application         : v55.0.0 ('Waiting For Space') 64-bit
Writing library             : libebml v1.4.2 + v1.6.4
Cover                       : Yes
Attachments                 : cover.jpg

Video
ID                          : 1
Format                      : AVC
Format/Info                 : Advanced Video Codec
Format profile              : [email protected]
Format settings             : CABAC / 12 Ref Frames
Format settings, CABAC      : Yes
Format settings, Reference  : 12 frames
Codec ID                    : V_MPEG4/ISO/AVC
Duration                    : 1 h 26 min
Bit rate                    : 2 147 kb/s
Width                       : 1 024 pixels
Height                      : 552 pixels
Display aspect ratio        : 1.85:1
Frame rate mode             : Constant
Frame rate                  : 24.000 FPS
Color space                 : YUV
Chroma subsampling          : 4:2:0
Bit depth                   : 8 bits
Scan type                   : Progressive
Bits/(Pixel*Frame)          : 0.158
Stream size                 : 1.30 GiB (77%)
Title                       : Упс! Пригоди тривають... / Two by Two: Overboard! / Ooops! The Adventure Continues… (2020) AVC [AMZN, Hurtom]
Writing library             : core 157 r2969 d4099dd
Encoding settings           : cabac=1 / ref=12 / deblock=1:-3:-3 / analyse=0x3:0x133 / me=umh / subme=10 / psy=1 / psy_rd=0.40:0.00 / mixed_ref=1 / me_range=32 / chroma_me=1 / trellis=2 / 8x8dct=1 / cqm=0 / deadzone=21,11 / fast_pskip=1 / chroma_qp_offset=-2 / threads=6 / lookahead_threads=1 / sliced_threads=0 / nr=0 / decimate=1 / interlaced=0 / bluray_compat=0 / constrained_intra=0 / bframes=16 / b_pyramid=2 / b_adapt=2 / b_bias=0 / direct=3 / weightb=1 / open_gop=0 / weightp=2 / keyint=240 / keyint_min=24 / scenecut=40 / intra_refresh=0 / rc_lookahead=60 / rc=crf / mbtree=0 / crf=18.0 / qcomp=0.60 / qpmin=0 / qpmax=69 / qpstep=4 / vbv_maxrate=21504 / vbv_bufsize=26880 / crf_max=0.0 / nal_hrd=none / filler=0 / ip_ratio=1.40 / pb_ratio=1.30 / aq=1:0.60
Language                    : English
Default                     : Yes
Forced                      : No

Audio #1
ID                          : 2
Format                      : AC-3
Format/Info                 : Audio Coding 3
Commercial name             : Dolby Digital
Codec ID                    : A_AC3
Duration                    : 1 h 26 min
Bit rate mode               : Constant
Bit rate                    : 192 kb/s
Channel(s)                  : 2 channels
Channel layout              : L R
Sampling rate               : 48.0 kHz
Frame rate                  : 31.250 FPS (1536 SPF)
Compression mode            : Lossy
Stream size                 : 119 MiB (7%)
Title                       : Dub, 2.0 [stereo] 192 Kbps
Language                    : Ukrainian
Service kind                : Complete Main
Default                     : Yes
Forced                      : Yes

Audio #2
ID                          : 3
Format                      : AC-3
Format/Info                 : Audio Coding 3
Commercial name             : Dolby Digital
Codec ID                    : A_AC3
Duration                    : 1 h 26 min
Bit rate mode               : Constant
Bit rate                    : 448 kb/s
Channel(s)                  : 6 channels
Channel layout              : L R C LFE Ls Rs
Sampling rate               : 48.0 kHz
Frame rate                  : 31.250 FPS (1536 SPF)
Compression mode            : Lossy
Stream size                 : 277 MiB (16%)
Title                       : Original, 5.1 448 Kbps
Language                    : English
Service kind                : Complete Main
Default                     : No
Forced                      : No

Text #1
ID                          : 4
Format                      : UTF-8
Codec ID                    : S_TEXT/UTF8
Codec ID/Info               : UTF-8 Plain Text
Duration                    : 1 h 25 min
Bit rate                    : 53 b/s
Count of elements           : 1219
Stream size                 : 33.3 KiB (0%)
Title                       : Eng Full
Language                    : English
Default                     : No
Forced                      : No

Text #2
ID                          : 5
Format                      : UTF-8
Codec ID                    : S_TEXT/UTF8
Codec ID/Info               : UTF-8 Plain Text
Duration                    : 1 h 25 min
Bit rate                    : 70 b/s
Count of elements           : 1585
Stream size                 : 43.8 KiB (0%)
Title                       : Eng SDH
Language                    : English
Default                     : No
Forced                      : No


Код:
y4m [info]: 1024x552p 1:1 @ 24/1 fps (cfr)
[info]: using SAR=1/1
[info]: using cpu capabilities: MMX2 SSE2Fast SSSE3 SSE4.2 AVX FMA3 BMI2 AVX2
[info]: profile Progressive High, level 4.1, 4:2:0, 8-bit
[info]: frame I:1199  Avg QP:17.46  size: 93600
[info]: frame P:28437 Avg QP:19.32  size: 23741
[info]: frame B:94831 Avg QP:21.96  size:  6372
[info]: consecutive B-frames:  3.4%  3.6%  8.4% 26.3% 13.1% 23.6%  6.5%  7.3%  6.3%  0.8%  0.2%  0.1%  0.0%  0.1%  0.1%  0.1%  0.2%
[info]: mb I  I16..4:  4.6% 67.9% 27.5%
[info]: mb P  I16..4:  1.7% 14.6%  2.8%  P16..4: 27.9% 12.1% 11.9%  1.2%  0.4%    skip:27.4%
[info]: mb B  I16..4:  0.3%  1.8%  0.4%  B16..8: 20.7%  7.4%  2.8%  direct: 3.3%  skip:63.3%  L0:36.1% L1:41.9% BI:22.0%
[info]: 8x8 transform intra:74.2% inter:62.8%
[info]: direct mvs  spatial:100.0% temporal:0.0%
[info]: coded y,uvDC,uvAC intra: 75.4% 78.9% 52.0% inter: 13.7% 12.6% 4.6%
[info]: i16 v,h,dc,p: 20% 22% 11% 47%
[info]: i8 v,h,dc,ddl,ddr,vr,hd,vl,hu: 14% 17% 10%  7%  9%  9% 11%  9% 14%
[info]: i4 v,h,dc,ddl,ddr,vr,hd,vl,hu: 13% 15%  7%  7% 13% 11% 12%  8% 12%
[info]: i8c dc,h,v,p: 38% 29% 16% 17%
[info]: Weighted P-Frames: Y:4.8% UV:3.4%
[info]: ref P L0: 56.8% 14.6% 10.9%  4.6%  3.3%  2.6%  2.0%  1.2%  1.1%  1.0%  0.9%  1.0%  0.1%  0.0%
[info]: ref B L0: 81.5%  7.9%  3.9%  1.9%  1.4%  1.0%  0.8%  0.5%  0.5%  0.4%  0.2%
[info]: ref B L1: 95.2%  4.8%
[info]: kb/s:2146.73
encoded 124467 frames, 17.89 fps, 2146.73 kb/s
Final statistics
Constant Quality Mode: Quality 18 computed...
Video Bitrate Obtained (approximate): 2146 kbit/s



Джерело:
Подяка Толоківчанини за допомогу у створенні релізу.



 Трекер:    Зареєстрований   

Завантажити / скачати мультфільм українською



відео для новачків



 Зареєстрований:   2021-03-22 16:30
 Розмір:   1.68 GB 
 Оцінка мультфільму:   9.1/10 (Голосів: 14)
 ЗАЛИШАЙТЕСЬ ЯКОМОГА ДОВШЕ НА РОЗДАЧІ! ЗАВАНТАЖИВ САМ - ДАЙ ЗАВАНТАЖИТИ ІНШИМ!
   
bot 
робот


З нами з: 30.09.07
Востаннє: 26.05.05
Повідомлень: 27902

2021-03-22 16:30  
Тему перенесено з Анонси релізів до форуму Мультфільми


igor911

Ваш часовий пояс: GMT + 2 Години

Нова тема   Відповісти