Рая та останній дракон / Raya and the Last Dragon (2021) WEDLRip-AVC Ukr/Eng | Sub Ukr/Eng

Нові коментарі

Нова тема   Відповісти
Автор Повідомлення
eneyida.tv 
Свій


З нами з: 27.09.19
Востаннє: 21.04.21
Повідомлень: 83

2021-03-17 01:01  
Рая та останній дракон / Raya and the Last Dragon (2021) AVC Ukr/Eng | Sub Ukr/Eng

Рая та останній дракон / Raya and the Last Dragon (2021) WEDLRip-AVC Ukr/Eng | Sub Ukr/Eng


Жанр: анімація, комедія, музичний, пригодницький, сімейний, фентезі
Країна: США



Кінокомпанія: Walt Disney Animation Studios, Walt Disney Pictures
Режисер: Дон Холл, Карлос Лопес Естрада / Don Hall, Carlos López Estrada
Актори: Келлі Марі Тран, Аквафіна, Джемма Чан / Kelly Marie Tran, Awkwafina, Gemma Chan

Сюжет:
Колись давно у фантастичному світі під назвою Кумандра люди та дракони жили разом у злагоді. Але коли зловісні чудовиська, знані як Друни, почали загрожувати жителям, дракони пожертвували собою, щоб врятувати людство. 500 років потому монстри повернулись, і самотня воїтелька Рая мусить відшукати останнього дракона, щоб зупинити Друнів назавжди. Однак під час подорожі вона дізнається, що для того, аби врятувати світ, магії драконів замало. Потрібна ще й довіра.


Тривалість: 01:48:27
Якість:

Відео:
кодек:
розмір кадру: 1024х428
бітрейт: 1740 кб/с

Аудіо # 1:
мова: українська
переклад: професійний дубльований | Ліцензія
кодек: 5.1
бітрейт: 384 кб/с

Аудіо # 2:
мова: англійська
переклад: оригінал
кодек: 5.1
бітрейт: 384 кб/с

Субтитри # 1-2:
мова: українська (форсовані, повні)
тип: програмні (м'які)
формат: *.srt
переклад: офіційний, Наталя Ковалишин

Субтитри # 3:
мова: англійська (SDH)
тип: програмні (м'які)
формат: *.srt
Info
Код:
General
Unique ID                   : 58548357231075449301893227139261010692 (0x2C0C00E15A267A396D286DE7CD981304)
Complete name               : Raya and the Last Dragon (2021) [Ukr,Eng sub.Ukr,Eng] AVC [Hurtom].
Format                      :
Format version              : Version 4
File size                   : 1.88 GiB
Duration                    : 1 h 47 min
Overall bit rate            : 2 511 kb/s
Movie name                  : Рая та останній дракон / Raya and the Last Dragon (2021) [Ukr,Eng sub.Ukr,Eng] AVC [Hurtom]
Encoded date                : UTC 2021-04-02 13:35:44
Writing application         : v55.0.0 ('Waiting For Space') 64-bit
Writing library             : libebml v1.4.2 + v1.6.4
Cover                       : Yes
Attachments                 : cover.jpg

Video
ID                          : 1
Format                      : AVC
Format/Info                 : Advanced Video Codec
Format profile              : [email protected]
Format settings             : CABAC / 12 Ref Frames
Format settings, CABAC      : Yes
Format settings, Reference  : 12 frames
Codec ID                    : V_MPEG4/ISO/AVC
Duration                    : 1 h 47 min
Bit rate                    : 1 740 kb/s
Width                       : 1 024 pixels
Height                      : 428 pixels
Display aspect ratio        : 2.40:1
Frame rate mode             : Constant
Frame rate                  : 23.976 (24000/1001) FPS
Color space                 : YUV
Chroma subsampling          : 4:2:0
Bit depth                   : 8 bits
Scan type                   : Progressive
Bits/(Pixel*Frame)          : 0.166
Stream size                 : 1.31 GiB (69%)
Title                       : Рая та останній дракон / Raya and the Last Dragon (2021) AVC [_wolf1245_MediaBit]
Writing library             : core 157 r2958 57baac4
Encoding settings           : cabac=1 / ref=12 / deblock=1:-2:-1 / analyse=0x3:0x133 / me=umh / subme=10 / psy=1 / psy_rd=1.00:0.00 / mixed_ref=1 / me_range=32 / chroma_me=1 / trellis=2 / 8x8dct=1 / cqm=0 / deadzone=21,11 / fast_pskip=1 / chroma_qp_offset=-2 / threads=10 / lookahead_threads=2 / sliced_threads=0 / nr=0 / decimate=1 / interlaced=0 / bluray_compat=0 / constrained_intra=0 / bframes=10 / b_pyramid=2 / b_adapt=2 / b_bias=0 / direct=3 / weightb=1 / open_gop=0 / weightp=2 / keyint=240 / keyint_min=24 / scenecut=40 / intra_refresh=0 / rc_lookahead=60 / rc=2pass / mbtree=1 / bitrate=1740 / ratetol=1.0 / qcomp=0.60 / qpmin=0 / qpmax=69 / qpstep=4 / cplxblur=20.0 / qblur=0.5 / vbv_maxrate=50000 / vbv_bufsize=62500 / nal_hrd=none / filler=0 / ip_ratio=1.40 / aq=1:0.80
Language                    : English
Default                     : Yes
Forced                      : No
Color range                 : Limited
Color primaries             : BT.709
Transfer characteristics    : BT.709
Matrix coefficients         : BT.709

Audio #1
ID                          : 2
Format                      : AC-3
Format/Info                 : Audio Coding 3
Commercial name             : Dolby Digital
Codec ID                    : A_AC3
Duration                    : 1 h 47 min
Bit rate mode               : Constant
Bit rate                    : 384 kb/s
Channel(s)                  : 6 channels
Channel layout              : L R C LFE Ls Rs
Sampling rate               : 48.0 kHz
Frame rate                  : 31.250 FPS (1536 SPF)
Compression mode            : Lossy
Stream size                 : 295 MiB (15%)
Title                       : Dub [License], 5.1 384 Kbps
Language                    : Ukrainian
Service kind                : Complete Main
Default                     : Yes
Forced                      : No

Audio #2
ID                          : 3
Format                      : AC-3
Format/Info                 : Audio Coding 3
Commercial name             : Dolby Digital
Codec ID                    : A_AC3
Duration                    : 1 h 47 min
Bit rate mode               : Constant
Bit rate                    : 384 kb/s
Channel(s)                  : 6 channels
Channel layout              : L R C LFE Ls Rs
Sampling rate               : 48.0 kHz
Frame rate                  : 31.250 FPS (1536 SPF)
Compression mode            : Lossy
Stream size                 : 295 MiB (15%)
Language                    : English
Service kind                : Complete Main
Default                     : No
Forced                      : No

Text #1
ID                          : 4
Format                      : UTF-8
Codec ID                    : S_TEXT/UTF8
Codec ID/Info               : UTF-8 Plain Text
Duration                    : 1 h 43 min
Bit rate                    : 0 b/s
Count of elements           : 7
Stream size                 : 217 Bytes (0%)
Title                       : Ukr Forced
Language                    : Ukrainian
Default                     : Yes
Forced                      : Yes

Text #2
ID                          : 5
Format                      : UTF-8
Codec ID                    : S_TEXT/UTF8
Codec ID/Info               : UTF-8 Plain Text
Duration                    : 1 h 45 min
Bit rate                    : 68 b/s
Count of elements           : 1160
Stream size                 : 52.9 KiB (0%)
Title                       : Ukr Full [License]
Language                    : Ukrainian
Default                     : No
Forced                      : No

Text #3
ID                          : 6
Format                      : UTF-8
Codec ID                    : S_TEXT/UTF8
Codec ID/Info               : UTF-8 Plain Text
Duration                    : 1 h 37 min
Bit rate                    : 68 b/s
Count of elements           : 1919
Stream size                 : 48.8 KiB (0%)
Title                       : English (SDH)
Language                    : English
Default                     : No
Forced                      : No
Скріншоти
Джерело: & eneyida.tv

02.04.2021 реліз оновлено - дубляж замінено з Line на ліцензійний 5.1,
додано форсовані та повні офіційні українські субтитри


 Трекер:    Зареєстрований   

Завантажити / скачати мультфільм українською



відео для новачків



 Зареєстрований:   2021-04-02 16:49
 Розмір:   1.88 GB 
 Оцінка мультфільму:   9.5/10 (Голосів: 90)
   
bot 
робот


З нами з: 30.09.07
Востаннє: 26.05.05
Повідомлень: 27963

2021-03-17 01:01  
Тему перенесено з Мультфільми до форуму Анонси релізів


eneyida.tv

Tar-patrik 
Новенький


З нами з: 26.12.09
Востаннє: 17.04.21
Повідомлень: 9

2021-03-19 00:06  
Дякую, мультик пречудовий, з великим задоволенням подивилася разом з дитиною!
Prybulets 
Свій


З нами з: 10.09.11
Востаннє: 22.04.21
Повідомлень: 86

2021-03-19 22:38  
Класний мульт, думав, що вже постарів, бо давно не заходив ніякий мульт (окрім "Душі"), але то просто мульти були ніякі. Цей варто дивитися)
sdplayer 
Новенький


З нами з: 12.03.11
Востаннє: 20.04.21
Повідомлень: 2

2021-03-19 23:38  
Мультик цікавий, тобто ідеї закладені цінні для суспільства, про єдність та порозуміння, правда реалізація на мою думку (сценарій) то по соживацькій системі..., але знято гарно і смішний гарні види та герої, раджу подивитися...!)
Zloyxjrr 
Новенький


З нами з: 06.02.21
Востаннє: 30.03.21
Повідомлень: 1

2021-03-21 13:48  
Добрий день. Допоможіть інформацією. Хто озвучує український дубляж мультика. дякую
Rhett_Butler 
Свій


З нами з: 07.11.11
Востаннє: 22.04.21
Повідомлень: 55

2021-03-31 00:47  
Цікава анімація . 10\10 .
igor911 
Модератор відео


З нами з: 18.01.08
Востаннє: 22.04.21
Повідомлень: 15898

2021-04-02 16:52  
Реліз оновлено - дубляж замінено з Line на ліцензійний 5.1, додано форсовані та повні офіційні українські субтитри
apr1l 
Новенький


З нами з: 02.01.17
Востаннє: 22.04.21
Повідомлень: 13

2021-04-05 20:31  
Мультик дуже класний, для малюків те що требо, але одна річ мені не сподобалася в українському дубляжі, це голос жінки що озвучує дракона (голос завзятого курця).
ebib 
Новенький


З нами з: 16.12.12
Востаннє: 17.04.21
Повідомлень: 13

2021-04-10 23:22  
Гарний анімаційний фільм. Можливо один з кращих, що вийшов останнім часом. Рекомендую для сімейного перегляду.
ragnarh 
Новенький


З нами з: 11.12.13
Востаннє: 22.04.21
Повідомлень: 11

2021-04-12 12:33  
А мені навпаки, голос жінки, яка озвучує дракона, сподобався найбільше)
max3x 
Новенький


З нами з: 10.04.13
Востаннє: 17.04.21
Повідомлень: 21

2021-04-12 22:04  
Черговий шедевр від студії Діснея. Ідея, реалізація, музичний супровід, переклад все на висоті. На мою думку Рая, Ваяна та Коко є найкращими мультиками.
Ваш часовий пояс: GMT + 2 Години

Нова тема   Відповісти