Ісус Христос — Суперзірка / Jesus Christ Superstar (1973) 1080p Eng | sub Ukr/Eng

Нові коментарі

Нова тема   Відповісти
Автор Повідомлення
Anonymous 







2021-03-16 03:28  
Ісус Христос — Суперзірка / Jesus Christ Superstar (1973) 1080p Eng | sub Ukr/Eng

Ісус Христос — Суперзірка / Jesus Christ Superstar (1973) 1080p Eng | sub Ukr/Eng


Жанр: мюзикл, драма, історичний, музичний
Країна: США



Кінокомпанія: Universal Pictures
Режисер: Норман Джевісон / Norman Jewison
Актори: Тед Нілі / Ted Neeley, Carl Anderson / Карл Андерсон, Івонн Елліман / Yvonne Elliman, Беррі Деннен / Barry Dennen

Сюжет:
Кіноверсія легендарної рок-опери Ендрю Ллойда Веббера та Тіма Райса, що показує останні кілька тижнів життя Христа, розказані в анахронічній манері.
Забороняли і в СРСР та трохи в рф.
Знято очевидно атеїстами (комуняками), але майже без неповаги до християнства.

Класика.

Переклав: Владислав Кастільо


Тривалість: 01:46:00
Якість:
Відео:
кодек:
розмір кадру: 1920 х 816
бітрейт: 10,2 Мб/с

Аудіо # 1:
мова: англійська
переклад: оригінал
кодек: 2.0
бітрейт: 1509 кб/с

Аудіо # 2:
мова: англійська
переклад: оригінал
кодек: 2.0
бітрейт: 224 кб/с

Субтитри # 1: + також окремим файлом
мова: українська
тип: програмні (м'які)
формат: *.srt

Субтитри # 2:
мова: англійська
тип: програмні (м'які)
формат: *.srt
Info
Код:
General
Unique ID                                : 197183042456141095836149016284922766742 (0x94581295DBE4744D60A157E53581E596)
Complete name                            :Jesus Christ Superstar (1973)\Jesus.Christ.Superstar.1973.Sub..1080p.
Format                                   :
Format version                           : Version 4
File size                                : 8.91 GiB
Duration                                 : 1 h 46 min
Overall bit rate                         : 12.0 Mb/s
Encoded date                             : UTC 2021-03-16 16:46:04
Writing application                      : v55.0.0 ('Waiting For Space') 64-bit
Writing library                          : libebml v1.4.2 + v1.6.4

Video
ID                                       : 1
Format                                   : AVC
Format/Info                              : Advanced Video Codec
Format profile                           : [email protected]
Format settings                          : CABAC / 5 Ref Frames
Format settings, CABAC                   : Yes
Format settings, Reference frames        : 5 frames
Codec ID                                 : V_MPEG4/ISO/AVC
Duration                                 : 1 h 46 min
Bit rate                                 : 10.2 Mb/s
Width                                    : 1 920 pixels
Height                                   : 816 pixels
Display aspect ratio                     : 2.35:1
Frame rate mode                          : Constant
Frame rate                               : 23.976 (24000/1001) FPS
Color space                              : YUV
Chroma subsampling                       : 4:2:0
Bit depth                                : 8 bits
Scan type                                : Progressive
Bits/(Pixel*Frame)                       : 0.272
Stream size                              : 7.62 GiB (85%)
Writing library                          : core 130 r2273 b3065e6
Encoding settings                        : cabac=1 / ref=5 / deblock=1:-3:-3 / analyse=0x3:0x113 / me=umh / subme=8 / psy=1 / psy_rd=1.00:0.00 / mixed_ref=1 / me_range=16 / chroma_me=1 / trellis=1 / 8x8dct=1 / cqm=0 / deadzone=21,11 / fast_pskip=1 / chroma_qp_offset=-2 / threads=12 / lookahead_threads=2 / sliced_threads=0 / nr=0 / decimate=1 / interlaced=0 / bluray_compat=0 / constrained_intra=0 / bframes=3 / b_pyramid=2 / b_adapt=2 / b_bias=0 / direct=3 / weightb=1 / open_gop=0 / weightp=2 / keyint=240 / keyint_min=24 / scenecut=40 / intra_refresh=0 / rc_lookahead=50 / rc=2pass / mbtree=1 / bitrate=10233 / ratetol=1.0 / qcomp=0.60 / qpmin=0 / qpmax=69 / qpstep=4 / cplxblur=20.0 / qblur=0.5 / ip_ratio=1.40 / aq=1:1.00
Language                                 : English
Default                                  : Yes
Forced                                   : No

Audio #1
ID                                       : 2
Format                                   :
Format/Info                              : Digital Theater Systems
Codec ID                                 : A_DTS
Duration                                 : 1 h 46 min
Bit rate mode                            : Constant
Bit rate                                 : 1 509 kb/s
Channel(s)                               : 2 channels
Channel layout                           : Lt Rt
Sampling rate                            : 48.0 kHz
Frame rate                               : 93.750 FPS (512 SPF)
Bit depth                                : 24 bits
Compression mode                         : Lossy
Stream size                              : 1.12 GiB (13%)
Title                                    : [email protected]
Language                                 : English
Default                                  : Yes
Forced                                   : No

Audio #2
ID                                       : 3
Format                                   : AC-3
Format/Info                              : Audio Coding 3
Commercial name                          : Dolby Digital
Codec ID                                 : A_AC3
Duration                                 : 1 h 46 min
Bit rate mode                            : Constant
Bit rate                                 : 224 kb/s
Channel(s)                               : 2 channels
Channel layout                           : L R
Sampling rate                            : 48.0 kHz
Frame rate                               : 31.250 FPS (1536 SPF)
Compression mode                         : Lossy
Stream size                              : 171 MiB (2%)
Title                                    : DD [email protected]
Language                                 : English
Service kind                             : Complete Main
Default                                  : No
Forced                                   : No

Text #1
ID                                       : 4
Format                                   : UTF-8
Codec ID                                 : S_TEXT/UTF8
Codec ID/Info                            : UTF-8 Plain Text
Duration                                 : 1 h 39 min
Bit rate                                 : 113 b/s
Count of elements                        : 1204
Stream size                              : 82.8 KiB (0%)
Title                                    : Ukr
Language                                 : Ukrainian
Default                                  : Yes
Forced                                   : Yes

Text #2
ID                                       : 5
Format                                   : UTF-8
Codec ID                                 : S_TEXT/UTF8
Codec ID/Info                            : UTF-8 Plain Text
Duration                                 : 1 h 35 min
Bit rate                                 : 48 b/s
Count of elements                        : 1277
Stream size                              : 33.7 KiB (0%)
Title                                    : Eng (SRT)
Language                                 : English
Default                                  : No
Forced                                   : No

Menu
00:00:00.000                             : en:Overture: Heaven on Their Minds
00:10:57.448                             : en:What's the Buzz?
00:13:19.590                             : en:Strange Thing Mystifying
00:18:11.549                             : en:Everything's Alright
00:26:03.312                             : en:Hosanna
00:29:41.238                             : en:Simon Zealotes
00:35:40.180                             : en:Pilate's Dream
00:37:23.366                             : en:The Temple
00:39:17.897                             : en:My Temple Should Be
00:44:10.106                             : en:I Don't Know How to Love
00:49:27.882                             : en:Damned for All Time
00:53:37.256                             : en:The Last Supper
01:00:54.943                             : en:Gethsemane
01:07:06.481                             : en:The Arrest, Part One
01:09:01.512                             : en:The Arrest, Part Two
01:11:19.358                             : en:Peter's Denial
01:13:58.809                             : en:Pilate and Christ
01:16:16.363                             : en:King Herod's Song
01:19:31.558                             : en:Could We Start Again Please?
01:23:19.620                             : en:Judas' Death
01:28:09.576                             : en:Trial Before Pilate
01:35:07.493                             : en:Superstar
01:39:14.073                             : en:The Crucifixion
01:44:31.223                             : en:End Titles
Скріншоти







Джерело: &
Особиста оцінка: 10 - без зайвих вагань рекомендую всім!


Золотий реліз (завантажене не впливає на рейтинг)
 Трекер:    Зареєстрований   

Завантажити / скачати фільм українською



відео для новачків



 Зареєстрований:   2021-03-16 20:00
 Розмір:   8.93 GB 
 Оцінка фільму:   7.8/10 (Голосів: 4)
   
besconst 
Свій


З нами з: 10.03.12
Востаннє: 14.04.21
Повідомлень: 72

2021-03-16 10:28  
знято комуністами - заборонено комуністами, ору)))
igor911 
Модератор відео


З нами з: 18.01.08
Востаннє: 14.04.21
Повідомлень: 15851

2021-03-16 12:25  
Anonymous написано:
1080p
Bit rate : 2 150 kb/s
Width : 1 920 pixels
Height : 800 pixels
Bits/(Pixel*Frame) : 0.058
Encoding settings : rc=2pass

такі недо-ріпи заборонені правилами ( https://toloka.to/t201 Додаток до релізів в якості HD)
Для 1080p:
Цитата:
5. Обов'язкові технічні вимоги:

Параметри кодування мають відповідати хоча б me=umh, subme=7, ref=3
2pass: значення Bits/(Pixel*Frame) має бути не меншим, ніж 0.16

Замініть ріп на якісніший або на інший з меншим розміром кадру.

bot 
робот


З нами з: 30.09.07
Востаннє: 26.05.05
Повідомлень: 27884

2021-03-16 12:25  
Тему перенесено з Фільми до форуму Неоформлене відео


igor911

bot 
робот


З нами з: 30.09.07
Востаннє: 26.05.05
Повідомлень: 27884

2021-03-16 23:10  
Тему перенесено з Неоформлене відео до форуму Фільми


igor911

killer2015 
VIP


З нами з: 30.01.15
Востаннє: 14.04.21
Повідомлень: 462

2021-03-18 19:41  
Я навіть незнаю що й сказати... якщо Божо гніву не боїтеся то можете дивитися. Горіти в пеклі творцям цього фільму.
+380954897458 
VIP


З нами з: 02.06.17
Востаннє: 22.03.21
Повідомлень: 1132

2021-03-19 13:46  
killer2015 написано:
якщо Божо гніву не боїтеся то можете дивитися. Горіти в пеклі творцям цього фільму.

Шановний, Ви марите! Не можу повірити в те що я оце прочитав. Cry (1)

MykhayloМ 
Поважний учасник


З нами з: 05.01.13
Востаннє: 12.04.21
Повідомлень: 180

2021-04-04 19:07  
killer2015
Цитата:
Я навіть незнаю що й сказати... якщо Божо гніву не боїтеся то можете дивитися. Горіти в пеклі творцям цього фільму.

А фільм "Страсті Христові" можна дивитись ? Так, щоб без пекельних наслідків ? А "Останню спокусу Христа" ?
А хор в церкві можна слухати , гріха в тому немає ? А дивитись на зображення Христа , хоча б на іконах ?
Все перечислене - твори мистецтва, людські творіння. Все це має якусь частину домислу, уяви творців картин, фільмів, музичних творів - отже, всіх в пекло ?...

Шо ж ... раз кіллер сказав ... мабуть, він знає ... спеціаліст по пеклу Happy

Ваш часовий пояс: GMT + 2 Години

Нова тема   Відповісти