Монстр у Парижі / Un monstre à Paris (2011) AVC 2xUkr/Fra | Sub Fra

Нові коментарі

Нова тема   Відповісти
Автор Повідомлення
Anonymous 







2021-03-15 16:35  
Монстр у Парижі / Un monstre à Paris (2011) AVC 2xUkr/Fra | Sub Fra

Монстр у Парижі / Un monstre à Paris (2011) AVC 2xUkr/Fra | Sub Fra


Жанр: анімація, пригодницький, сімейний
Країна: Франція



Кінокомпанія: Bibo Films, Europa Corp., Walking The Dog, uFilm, France 3 Cinema
Режисер: Бібо Бержерон
Ролі озвучують: Мат’є Шедід, Ванесса Параді, Гад Ельмалех, Франсуа Клюзе, Людівін Сан’є та інші.

Сюжет:
Новий повнометражний мультфільм «Монстр в Парижі» від творця фільму «Підводна братва» Бібо Бержерона і спродюсований Люком Бессоном («Нікіта», «П'ятий елемент», «Жанна д'Арк»), розповість дивовижну історію, що відбулася в Парижі під час повені Сени в 1910 році. Головними персонажами мультфільму є Еміль - сором'язливий кіномеханік, одержимий винахідництвом Рауль і Люсіль - співачка кабаре «Райський птах». Одного разу Рауль в лабораторії досліджував речовину, яка чинила на оточуючих дивний вплив. Наприклад, мавпочка на ім'я Чарльз придбала голос оперного співака, а паросток соняшника виріс у величезну рослину за одну мить. Раптом стався вибух. Всі виходять «сухими з води», але Еміль переконаний, що він мигцем побачив якусь жахливу істоту. Кілька днів по тому, двоє друзів з жахом довідалися з газет, що монстр, що підходить під опис Еміля, дійсно існує, і вони несуть за це відповідальність.


Тривалість: 01:29:59
Якість: AVC
Відео:
кодек:
розмір кадру: 1200 х 650
бітрейт: 3 145 кб/с

Аудіо # 1:
мова: українська
озвучення: професійне, багатоголосе закадрове
кодек: 2.0 (стерео)
бітрейт: 192 кб/с

Аудіо # 2:
мова: українська
озвучення: професійне, багатоголосе закадрове від Skiff
кодек: 2.0
бітрейт: 384 кб/с

Аудіо # 3:
мова: французька
озвучення: оригінал
кодек: 5.1
бітрейт: 384 кб/с

Субтитри # 1 (форсовані, на пісні для аудіодоріжки # 2):
мова: українська
тип: програмні (м'які)
формат: *.srt

Субтитри # 2:
мова: французька
тип: програмні (м'які)
формат: *.srt
Info
General
Unique ID : 127410601216035272839335484959413486551 (0x5FDA63A35C4D96F98C4BC4962F0FC3D7)
Complete name : D:\Un monstre à Paris (2011) AVC [2xUKR_FRA] [Hurtom].
Format :
Format version : Version 4 / Version 2
File size : 2.62 GiB
Duration : 1 h 29 min
Overall bit rate : 4 172 kb/s
Movie name : Монстр у Парижі / Un monstre à Paris (2011)
Encoded date : UTC 2021-03-15 13:21:35
Writing application : v51.0.0 ('I Wish') 32-bit
Writing library : libebml v1.4.0 + v1.6.2
Cover : Yes
Attachments : cover.jpg

Video
ID : 1
Format : AVC
Format/Info : Advanced Video Codec
Format profile : [email protected]
Format settings, CABAC : Yes
Format settings, RefFrames : 10 frames
Codec ID : V_MPEG4/ISO/AVC
Duration : 1 h 29 min
Bit rate : 3 145 kb/s
Width : 1 200 pixels
Height : 650 pixels
Display aspect ratio : 1.85:1
Frame rate mode : Constant
Frame rate : 23.976 (24000/1001) FPS
Color space : YUV
Chroma subsampling : 4:2:0
Bit depth : 8 bits
Scan type : Progressive
Bits/(Pixel*Frame) : 0.168
Stream size : 1.98 GiB (75%)
Writing library : core 120 r2164 da19765
Encoding settings : cabac=1 / ref=10 / deblock=1:-1:-1 / analyse=0x3:0x113 / me=umh / subme=10 / psy=1 / psy_rd=0.70:0.00 / mixed_ref=1 / me_range=32 / chroma_me=1 / trellis=2 / 8x8dct=1 / cqm=0 / deadzone=21,11 / fast_pskip=0 / chroma_qp_offset=-2 / threads=6 / sliced_threads=0 / nr=0 / decimate=0 / interlaced=0 / bluray_compat=0 / constrained_intra=0 / bframes=8 / b_pyramid=2 / b_adapt=2 / b_bias=0 / direct=3 / weightb=1 / open_gop=0 / weightp=2 / keyint=250 / keyint_min=23 / scenecut=40 / intra_refresh=0 / rc_lookahead=60 / rc=2pass / mbtree=1 / bitrate=3145 / ratetol=1.0 / qcomp=0.75 / qpmin=0 / qpmax=69 / qpstep=4 / cplxblur=20.0 / qblur=0.5 / vbv_maxrate=50000 / vbv_bufsize=62500 / nal_hrd=none / ip_ratio=1.10 / aq=2:0.70
Language : French
Default : Yes
Forced : No
Color range : Limited
Matrix coefficients : BT.709

Audio #1
ID : 2
Format : AC-3
Format/Info : Audio Coding 3
Format settings, Endianness : Big
Codec ID : A_AC3
Duration : 1 h 29 min
Bit rate mode : Constant
Bit rate : 192 kb/s
Channel(s) : 2 channels
Channel positions : Front: L R
Sampling rate : 48.0 kHz
Frame rate : 31.250 FPS (1536 SPF)
Bit depth : 16 bits
Compression mode : Lossy
Stream size : 124 MiB (5%)
Title : MVO (K1, stereo)
Language : Ukrainian
Service kind : Complete Main
Default : Yes
Forced : Yes

Audio #2
ID : 3
Format : AC-3
Format/Info : Audio Coding 3
Format settings, Endianness : Big
Codec ID : A_AC3
Duration : 1 h 29 min
Bit rate mode : Constant
Bit rate : 384 kb/s
Channel(s) : 2 channels
Channel positions : Front: L R
Sampling rate : 48.0 kHz
Frame rate : 31.250 FPS (1536 SPF)
Bit depth : 16 bits
Compression mode : Lossy
Stream size : 247 MiB (9%)
Title : MVO (LINE)
Language : Ukrainian
Service kind : Complete Main
Default : No
Forced : No

Audio #3
ID : 4
Format : AC-3
Format/Info : Audio Coding 3
Format settings, Endianness : Big
Codec ID : A_AC3
Duration : 1 h 29 min
Bit rate mode : Constant
Bit rate : 448 kb/s
Channel(s) : 6 channels
Channel positions : Front: L C R, Side: L R, LFE
Sampling rate : 48.0 kHz
Frame rate : 31.250 FPS (1536 SPF)
Bit depth : 16 bits
Compression mode : Lossy
Stream size : 288 MiB (11%)
Title : Original
Language : French
Service kind : Complete Main
Default : No
Forced : No

Text #1
ID : 5
Format : UTF-8
Codec ID : S_TEXT/UTF8
Codec ID/Info : UTF-8 Plain Text
Duration : 1 h 0 min
Bit rate : 11 b/s
Count of elements : 74
Stream size : 5.00 KiB (0%)
Title : Forced
Language : Ukrainian
Default : No
Forced : No

Text #2
ID : 6
Format : UTF-8
Codec ID : S_TEXT/UTF8
Codec ID/Info : UTF-8 Plain Text
Duration : 1 h 29 min
Bit rate : 62 b/s
Count of elements : 1546
Stream size : 41.0 KiB (0%)
Title : Full
Language : French
Default : No
Forced : No

Menu
00:00:00.000 : en:Chapter 1
00:03:18.407 : en:Chapter 2
00:10:39.055 : en:Chapter 3
00:17:50.945 : en:Chapter 4
00:21:40.466 : en:Chapter 5
00:24:28.884 : en:Chapter 6
00:28:26.455 : en:Chapter 7
00:31:54.412 : en:Chapter 8
00:38:03.364 : en:Chapter 9
00:48:02.129 : en:Chapter 10
00:53:34.753 : en:Chapter 11
01:00:44.307 : en:Chapter 12
01:06:38.328 : en:Chapter 13
01:14:54.365 : en:Chapter 14
01:16:52.817 : en:Chapter 15
01:20:17.354 : en:Chapter 16
01:21:52.616 : en:Chapter 17
01:23:35.719 : en:Chapter 18
Скріншоти
Джерело: &
Особиста оцінка: 0 - не дивився


 Трекер:    Зареєстрований   

Завантажити / скачати мультфільм українською



відео для новачків



 Зареєстрований:   2021-03-15 16:35
 Розмір:   2.62 GB 
 Оцінка мультфільму:   9.3/10 (Голосів: 8)
   
Ваш часовий пояс: GMT + 2 Години

Нова тема   Відповісти