Vivienne Mort - Вибране (2020) [] | Indie Rock

Нові коментарі

Нова тема   Відповісти
Автор Повідомлення
kolpavel 
VIP


З нами з: 04.05.14
Востаннє: 20.04.21
Повідомлень: 1399

2021-03-14 15:10  
Vivienne Mort - Вибране (2020) [] | Indie Rock

Vivienne Mort - Вибране (2020) [] | Indie Rock


Стиль: Indie Rock
Країна, місто: Україна, Київ
Сайти: Офіційний сайт
Видавець: гурт
Виконавці:
Даніела Заюшкіна — вокал, музика, тексти;
Гліб Проців — ударні;
Олександр Лежньов — клавішні;
Влад Бутенко — бас-гітара.
Пісні:
    01. Пташечка - 04:12
    02. Голубка - 04:32
    03. Ініи? - 03:31
    04. Лети - 02:55
    05. Думаю про тебе - 03:03
    06. Сліди маленьких рук - 04:54
    07. Ти забув про мене - 03:50
    08. Персефона - 04:02
    09. Риба - 03:14
    10. Маріула - 04:31
    11. Грушечка - 03:00
    12. Час - 03:20
    13. Змія - 04:52
    14. Г.г.п.т.к.н. - 04:21
    15. День, коли святі... - 06:27
    16. Любов - 03:41
    17. Вестерн - 03:50
    18. Колискова - 03:48

Тривалість: 01:12:03
Мова: українська
Аудіо-кодек:
Бітрейт: 587 - 1007 кб/с
Джерело: трекер
Додаткова інформація:
лог якостi
CUE Corrector v. 8.4.2 / b. 1027 (Feb. 05, 2021)
————————————————————————————————————————————————————————————————————————
Vivienne Mort / Вибране

Folder: Vivienne Mort - Вибране (2020)[]
Audio files:
01. Пташечка. [04:11.667; • 883 kbps • 16 bit \ 44100 Hz • stereo; 26,51 MB (27 801 766 B)]
02. Голубка. [04:32.213; • 637 kbps • 16 bit \ 44100 Hz • stereo; 20,70 MB (21 707 235 B)]
03. Іній. [03:30.627; • 1001 kbps • 16 bit \ 44100 Hz • stereo; 25,14 MB (26 366 312 B)]
04. Лети. [02:54.693; • 668 kbps • 16 bit \ 44100 Hz • stereo; 13,92 MB (14 596 145 B)]
05. Думаю про тебе. [03:02.773; • 868 kbps • 16 bit \ 44100 Hz • stereo; 18,91 MB (19 833 421 B)]
06. Сліди маленьких рук. [04:54.173; • 804 kbps • 16 bit \ 44100 Hz • stereo; 28,22 MB (29 586 867 B)]
07. Ти забув про мене. [03:50.000; • 823 kbps • 16 bit \ 44100 Hz • stereo; 22,59 MB (23 686 185 B)]
08. Персефона. [04:02.053; • 932 kbps • 16 bit \ 44100 Hz • stereo; 26,90 MB (28 202 578 B)]
09. Риба. [03:13.853; • 782 kbps • 16 bit \ 44100 Hz • stereo; 18,08 MB (18 956 349 B)]
10. Маріула. [04:31.480; • 867 kbps • 16 bit \ 44100 Hz • stereo; 28,06 MB (29 422 181 B)]
11. Грушечка. [02:59.907; • 605 kbps • 16 bit \ 44100 Hz • stereo; 12,98 MB (13 610 332 B)]
12. Час. [03:20.360; • 927 kbps • 16 bit \ 44100 Hz • stereo; 22,16 MB (23 237 524 B)]
13. Змія. [04:52.173; • 883 kbps • 16 bit \ 44100 Hz • stereo; 30,78 MB (32 273 644 B)]
14. Г.г.п.т.к.н. [04:21.107; • 827 kbps • 16 bit \ 44100 Hz • stereo; 25,76 MB (27 013 506 B)]
15. День, коли святі. [06:26.933; • 801 kbps • 16 bit \ 44100 Hz • stereo; 36,95 MB (38 745 796 B)]
16. Любов. [03:41.333; • 633 kbps • 16 bit \ 44100 Hz • stereo; 16,70 MB (17 514 504 B)]
17. Вестерн. [03:49.840; • 1007 kbps • 16 bit \ 44100 Hz • stereo; 27,60 MB (28 945 804 B)]
18. Колискова. [03:47.680; • 586 kbps • 16 bit \ 44100 Hz • stereo; 15,93 MB (16 704 558 B)]

Accuracy: -m0

File 01. Пташечка - 100% CDDA [04:11.667]
File 02. Голубка - 100% CDDA [04:32.213]
File 03. Іній - 100% CDDA [03:30.627]
File 04. Лети - 100% CDDA [02:54.680]
File 05. Думаю про тебе - 100% CDDA [03:02.773]
File 06. Сліди маленьких рук - 100% CDDA [04:54.160]
File 07. Ти забув про мене - 100% CDDA [03:50.000]
File 08. Персефона - 99% CDDA [04:02.053]
File 09. Риба - 100% CDDA [03:13.840]
File 10. Маріула - 100% CDDA [04:31.480]
File 11. Грушечка - 100% CDDA [02:59.893]
File 12. Час - 100% CDDA [03:20.360]
File 13. Змія - 100% CDDA [04:52.160]
File 14. Г.г.п.т.к.н - 99% CDDA [04:21.093]
File 15. День, коли святі - 100% CDDA [06:26.933]
File 16. Любов - 100% CDDA [03:41.320]
File 17. Вестерн - 100% CDDA [03:49.840]
File 18. Колискова - 99% CDDA [03:47.667]
————— Summary: —————
These tracks looks like CDDA with probability 100%.
————————————————————————————————————————————————————————————————————————

ANALYZER:
auCDtect: CD records authenticity detector, version 0.8.2
Copyright (c) 2004 Oleg Berngardt. All rights reserved.
Copyright (c) 2004 Alexander Djourik. All rights reserved.

Time elapsed: 3 m 04 s
Log created at March 12, 2021 21:33:54

=== 1528D311C335DA732D428A1A9D0BC4BC91D9D2E004A7D52099852AFB150A772B ===
DR
foobar2000 1.3.2 / Замер динамического диапазона (DR) 1.1.1
Дата отчёта: 2021-03-12 21:30:44

--------------------------------------------------------------------------------
Анализ: Vivienne Mort / Вибране
--------------------------------------------------------------------------------

DR Пики RMS Продолжительность трека
--------------------------------------------------------------------------------
DR6 -0.08 дБ -9.65 дБ 4:12 01-Пташечка
DR10 -4.02 дБ -17.70 дБ 4:32 02-Голубка
DR5 -0.39 дБ -7.42 дБ 3:31 03-Іній
DR11 -4.15 дБ -18.32 дБ 2:55 04-Лети
DR5 -0.43 дБ -8.20 дБ 3:03 05-Думаю про тебе
DR10 -0.14 дБ -12.82 дБ 4:54 06-Сліди маленьких рук
DR8 -0.11 дБ -11.28 дБ 3:50 07-Ти забув про мене
DR9 0.00 дБ -11.23 дБ 4:02 08-Персефона
DR8 -0.10 дБ -11.87 дБ 3:14 09-Риба
DR8 0.00 дБ -11.87 дБ 4:31 10-Маріула
DR11 -3.99 дБ -19.91 дБ 3:00 11-Грушечка
DR5 -0.41 дБ -8.05 дБ 3:20 12-Час
DR5 -0.50 дБ -8.99 дБ 4:52 13-Змія
DR9 -0.37 дБ -12.07 дБ 4:21 14-Г.г.п.т.к.н.
DR9 -0.32 дБ -13.17 дБ 6:27 15-День, коли святі...
DR10 -4.03 дБ -17.98 дБ 3:41 16-Любов
DR4 -0.40 дБ -6.70 дБ 3:50 17-Вестерн
DR10 -4.01 дБ -19.29 дБ 3:48 18-Колискова
--------------------------------------------------------------------------------

Количество треков: 18
Реальные значения DR: DR8

Частота: 44100 Гц
Каналов: 2
Разрядность: 16
Битрейт: 587 кбит/с
Кодек:
================================================================================


Якщо Ви справді бажаєте підтримати українське - після прослуховування, якщо музика вам сподобалась, придбайте ліцензійний диск. Підтримаймо вітчизняних виконавців!


Срібний реліз (на рейтинг впливає 50% завантаженого)
 Трекер:    Зареєстрований   

Завантажити / скачати українську музику



відео для новачків



 Зареєстрований:   2021-03-14 15:24
 Розмір:   418 MB 
 Оцінка музики:   9.8/10 (Голосів: 8)
   
Ваш часовий пояс: GMT + 2 Години

Нова тема   Відповісти