Ведмедики Буні: Стрибок у минуле / Boonie Bears: Blast Into the Past / Xiong chu mo: Yuan shi shi dai (2019) AVC Ukr/Eng | Sub Eng

Нові коментарі

Нова тема   Відповісти
Автор Повідомлення
Anonymous 







2021-03-12 16:00  
Ведмедики Буні: Стрибок у минуле / Boonie Bears: Blast Into the Past / Xiong chu mo: Yuan shi shi dai (2019) AVC Ukr/Eng | Sub Eng

Ведмедики Буні: Стрибок у минуле / Boonie Bears: Blast Into the Past / Xiong chu mo: Yuan shi shi dai (2019) AVC Ukr/Eng | Sub Eng


Жанр: анімація, комедія, пригоди, сімейний
Країна: Китай



Кінокомпанія: Fantawild Animation, Fantawild Pictures
Режисер: Дінг Ліанг, Лінь Хуейда
Ролі озвучують: Чжан Вей, Чжан Бінцзюнь, Тань Сяо, Сун Цзуер та інші.

Сюжет:
Зазвичай екскурсії не несуть у собі нічого поганого, тільки просвітлення. Але цю екскурсію ведмеді Бріар і Брембл, а також їх друг-дроворуб Вік запам'ятають на все життя! Вони потрапили в одну дуже давню печеру, яка вже є на світі явно більше тисячі, а то й цілі мільйони років! Це місце виявилося порталом в інший, доісторичний світ. Друзі потрапили в ті часи, коли на Землі бігали величезні птахи, неймовірні мамонти та багато-багато хижих тварин на кожному кроці – буквально все в цьому світі хоче їх убити та зжерти. Хлопцям треба за будь-яку ціну вибратися назад свого часу, але як це зробити без провідника? Благо їм зустрілася молода вовчиця Воллі, яка добре знає ці місця. Вона мріє знайти сміливість і впевнена, що нові друзі їй у цьому допоможуть. На їх шляху будуть неймовірні пригоди, які відкриють один одного по-новому.


Тривалість: 01:29:27
Якість: AVC
Відео:
кодек:
розмір кадру: 1024x428
бітрейт: 2 500 кб/с

Аудіо # 1:
мова: українська
озвучення: професійне, багатоголосе закадрове
кодек: 2.0 (стерео)
бітрейт: 192 кб/с
примітка: запис з DVB-С (18 kHz)

Аудіо # 2:
мова: англійська
озвучення: оригінал
кодек: 2.0 (стерео)
бітрейт: 192 кб/с

Субтитри # 1 (Повні):
мова: англійська
тип: програмні (м'які)
формат: *.srt

Субтитри # 2: (Повні, для людей з вадами слуху)
мова: англійська
тип: програмні (м'які)
формат: *.srt
Info
General
Unique ID : 222679105411529962080097690986798321064 (0xA7866F8AB32D92E46BE8806EA35F0DA8)
Complete name : D:\Boonie Bears. Blast Into the Past (2019) AVC [UKR_ENG] [Hurtom].
Format :
Format version : Version 4 / Version 2
File size : 1.78 GiB
Duration : 1 h 29 min
Overall bit rate : 2 851 kb/s
Movie name : Ведмедики Буні: Стрибок у минуле / Boonie Bears: Blast Into the Past / Xiong chu mo: Yuan shi shi dai (2019)
Encoded date : UTC 2021-03-12 12:53:54
Writing application : v51.0.0 ('I Wish') 32-bit
Writing library : libebml v1.4.0 + v1.6.2
Cover : Yes
Attachments : cover.jpg

Video
ID : 1
Format : AVC
Format/Info : Advanced Video Codec
Format profile : [email protected]
Format settings, CABAC : Yes
Format settings, RefFrames : 10 frames
Codec ID : V_MPEG4/ISO/AVC
Duration : 1 h 29 min
Bit rate : 2 500 kb/s
Width : 1 024 pixels
Height : 428 pixels
Display aspect ratio : 2.40:1
Frame rate mode : Constant
Frame rate : 24.000 FPS
Color space : YUV
Chroma subsampling : 4:2:0
Bit depth : 8 bits
Scan type : Progressive
Bits/(Pixel*Frame) : 0.238
Stream size : 1.54 GiB (86%)
Writing library : core 157 r2958 57baac4
Encoding settings : cabac=1 / ref=10 / deblock=1:-3:-3 / analyse=0x3:0x133 / me=umh / subme=11 / psy=1 / psy_rd=1.05:0.10 / mixed_ref=1 / me_range=32 / chroma_me=1 / trellis=2 / 8x8dct=1 / cqm=0 / deadzone=21,11 / fast_pskip=0 / chroma_qp_offset=-3 / threads=11 / lookahead_threads=1 / sliced_threads=0 / nr=0 / decimate=1 / interlaced=0 / bluray_compat=0 / constrained_intra=0 / bframes=10 / b_pyramid=2 / b_adapt=1 / b_bias=8 / direct=1 / weightb=1 / open_gop=0 / weightp=1 / keyint=240 / keyint_min=24 / scenecut=40 / intra_refresh=0 / rc_lookahead=60 / rc=abr / mbtree=1 / bitrate=2500 / ratetol=1.0 / qcomp=0.70 / qpmin=3 / qpmax=69 / qpstep=4 / ip_ratio=1.40 / aq=2:1.00
Language : English
Default : Yes
Forced : No
Color range : Limited
Color primaries : BT.709
Transfer characteristics : BT.709
Matrix coefficients : BT.709

Audio #1
ID : 2
Format : AC-3
Format/Info : Audio Coding 3
Format settings, Endianness : Big
Codec ID : A_AC3
Duration : 1 h 29 min
Bit rate mode : Constant
Bit rate : 192 kb/s
Channel(s) : 2 channels
Channel positions : Front: L R
Sampling rate : 48.0 kHz
Frame rate : 31.250 FPS (1536 SPF)
Bit depth : 16 bits
Compression mode : Lossy
Stream size : 123 MiB (7%)
Title : Kids HD
Language : Ukrainian
Service kind : Complete Main
Default : Yes
Forced : Yes

Audio #2
ID : 3
Format : AC-3
Format/Info : Audio Coding 3
Format settings, Endianness : Big
Codec ID : A_AC3
Duration : 1 h 29 min
Bit rate mode : Constant
Bit rate : 192 kb/s
Channel(s) : 2 channels
Channel positions : Front: L R
Sampling rate : 48.0 kHz
Frame rate : 31.250 FPS (1536 SPF)
Bit depth : 16 bits
Compression mode : Lossy
Stream size : 123 MiB (7%)
Title : Original
Language : English
Service kind : Complete Main
Default : No
Forced : No

Text #1
ID : 4
Format : UTF-8
Codec ID : S_TEXT/UTF8
Codec ID/Info : UTF-8 Plain Text
Duration : 1 h 26 min
Bit rate : 30 b/s
Count of elements : 952
Stream size : 19.5 KiB (0%)
Title : Full
Language : English
Default : No
Forced : No

Text #2
ID : 5
Format : UTF-8
Codec ID : S_TEXT/UTF8
Codec ID/Info : UTF-8 Plain Text
Duration : 1 h 29 min
Bit rate : 51 b/s
Count of elements : 1781
Stream size : 33.9 KiB (0%)
Title : Full (SDH)
Language : English
Default : No
Forced : No

Menu
00:00:00.000 : en:1
00:08:23.500 : en:2
00:16:45.208 : en:3
00:24:11.623 : en:4
00:32:21.538 : en:5
00:40:25.996 : en:6
00:48:28.996 : en:7
00:56:04.871 : en:8
01:04:49.371 : en:9
01:12:55.120 : en:10
01:22:02.245 : en:11
01:26:54.452 : en:12
Скріншоти
Подяка: за доріжку №1 - Sando7
Джерело: &
Особиста оцінка: 0 - не дивився


 Трекер:    Зареєстрований   

Завантажити / скачати мультфільм українською



відео для новачків



 Зареєстрований:   2021-03-12 16:00
 Розмір:   1.78 GB 
 Оцінка мультфільму:   9.8/10 (Голосів: 6)
   
mu4a4i 
Свій


З нами з: 05.11.10
Востаннє: 19.04.21
Повідомлень: 82

2021-03-18 22:57  
Це 6-а із 7 за рахунком анімація у циклі мультфільмів про цих ведмедів (не рахуючи ще однойменний мультсеріал). В цілому вийшов досить таки непоганим та цікавим. Для сімейного перегляду в самий раз
Ваш часовий пояс: GMT + 2 Години

Нова тема   Відповісти