Агент Марні / Marnies Welt (2018) AVC 2xUkr/Eng

Нові коментарі

Нова тема   Відповісти
Автор Повідомлення
Anonymous 







2021-03-11 17:42  
Агент Марні / Marnies Welt (2018) AVC 2xUkr/Eng

Агент Марні / Marnies Welt (2018) AVC 2xUkr/Eng


Жанр: пригоди, сімейний
Країна: Німеччина, Бельгія



Кінокомпанія: Grid Animation, Philm CGI, Scope Pictures, Seven Pictures, UFA Fiction
Режисер: Крістоф Лауенштайн, Вольфганг Лауенштайн
Ролі озвучують: Ерік Борнер, Олександра Нелдель, Аксель Праль

Сюжет:
Марні - пухкенька руда кицька, що завжди жила, немов принцеса, і отримувала все, чого хотіла. Але коли настане час пробиватися у цьому світі самотужки, вона усвідомить, хто вона насправді - самотня киця, якій потрібні друзі...


Тривалість: 01:28:22
Якість: AVC
Відео:
кодек:
розмір кадру: 1024x552
бітрейт: 1 071 кб/с

Аудіо # 1:
мова: українська
озвучення: професійний дубляж
кодек: 2.0
бітрейт: 192 кб/с
примітка: запис з DVB-T2 (18 kHz)

Аудіо # 2:
мова: українська
озвучення: професійне, багатоголосе закадрове
кодек: 2.0 [stereo]
бітрейт: 192 кб/с
примітка: запис з DVB-С (18 kHz)

Аудіо # 3:
мова: англійська
озвучення: оригінал
кодек: 5.1
бітрейт: 384 кб/с
Info
General
Unique ID : 16605602617242449477237863403533206572 (0xC7E1F6B65E6C4D7B163A0358E9D842C)
Complete name : D:\Marnies Welt (2018) AVC [2xUKR_ENG] [Hurtom].
Format :
Format version : Version 4 / Version 2
File size : 1.14 GiB
Duration : 1 h 28 min
Overall bit rate : 1 842 kb/s
Movie name : Агент Марні / Marnies Welt (2018)
Encoded date : UTC 2021-03-11 14:35:16
Writing application : v51.0.0 ('I Wish') 32-bit
Writing library : libebml v1.4.0 + v1.6.2
Cover : Yes
Attachments : cover.jpg

Video
ID : 1
Format : AVC
Format/Info : Advanced Video Codec
Format profile : [email protected]
Format settings, CABAC : Yes
Format settings, RefFrames : 15 frames
Codec ID : V_MPEG4/ISO/AVC
Duration : 1 h 28 min
Bit rate : 1 071 kb/s
Width : 1 024 pixels
Height : 552 pixels
Display aspect ratio : 1.85:1
Frame rate mode : Constant
Frame rate : 25.000 FPS
Color space : YUV
Chroma subsampling : 4:2:0
Bit depth : 8 bits
Scan type : Progressive
Bits/(Pixel*Frame) : 0.076
Stream size : 680 MiB (58%)
Writing library : core 157 r2969 d4099dd
Encoding settings : cabac=1 / ref=15 / deblock=1:-1:-1 / analyse=0x3:0x133 / me=umh / subme=10 / psy=1 / psy_rd=0.40:0.00 / mixed_ref=1 / me_range=32 / chroma_me=1 / trellis=2 / 8x8dct=1 / cqm=0 / deadzone=21,11 / fast_pskip=1 / chroma_qp_offset=-2 / threads=17 / lookahead_threads=4 / sliced_threads=0 / nr=0 / decimate=1 / interlaced=0 / bluray_compat=0 / constrained_intra=0 / bframes=10 / b_pyramid=2 / b_adapt=2 / b_bias=0 / direct=3 / weightb=1 / open_gop=0 / weightp=2 / keyint=250 / keyint_min=25 / scenecut=40 / intra_refresh=0 / rc_lookahead=60 / rc=crf / mbtree=1 / crf=19.0 / qcomp=0.70 / qpmin=0 / qpmax=69 / qpstep=4 / ip_ratio=1.40 / aq=1:0.60
Language : English
Default : Yes
Forced : No

Audio #1
ID : 2
Format : AC-3
Format/Info : Audio Coding 3
Format settings, Endianness : Big
Codec ID : A_AC3
Duration : 1 h 28 min
Bit rate mode : Constant
Bit rate : 192 kb/s
Channel(s) : 2 channels
Channel positions : Front: L R
Sampling rate : 48.0 kHz
Frame rate : 31.250 FPS (1536 SPF)
Bit depth : 16 bits
Compression mode : Lossy
Stream size : 122 MiB (10%)
Title : Новий Канал
Language : Ukrainian
Service kind : Complete Main
Default : Yes
Forced : Yes

Audio #2
ID : 3
Format : AC-3
Format/Info : Audio Coding 3
Format settings, Endianness : Big
Codec ID : A_AC3
Duration : 1 h 28 min
Bit rate mode : Constant
Bit rate : 192 kb/s
Channel(s) : 2 channels
Channel positions : Front: L R
Sampling rate : 48.0 kHz
Frame rate : 31.250 FPS (1536 SPF)
Bit depth : 16 bits
Compression mode : Lossy
Stream size : 122 MiB (10%)
Title : Cine+ Kids HD
Language : Ukrainian
Service kind : Complete Main
Default : No
Forced : No

Audio #3
ID : 4
Format : AC-3
Format/Info : Audio Coding 3
Format settings, Endianness : Big
Codec ID : A_AC3
Duration : 1 h 28 min
Bit rate mode : Constant
Bit rate : 384 kb/s
Channel(s) : 6 channels
Channel positions : Front: L C R, Side: L R, LFE
Sampling rate : 48.0 kHz
Frame rate : 31.250 FPS (1536 SPF)
Bit depth : 16 bits
Compression mode : Lossy
Stream size : 244 MiB (21%)
Title : Original
Language : English
Service kind : Complete Main
Default : No
Forced : No
Скріншоти
Джерело:
Особиста оцінка: 0 - не дивився

Подяка : доріжка №1 - sergiyko, доріжка №2 - Sando7


 Трекер:    Зареєстрований   

Завантажити / скачати мультфільм українською



відео для новачків



 Зареєстрований:   2021-03-11 17:42
 Розмір:   1.14 GB 
 Оцінка мультфільму:   9.5/10 (Голосів: 11)
   
Інші релізи
   Агент Марні / Marnies Welt (2018) antik_2008  10 / 0   1.47 GB   2019-11-03 16:41 
   Агент Марні / Marnies Welt (2018) 720p Ukr/Eng sergiyko.5  0 / 0   1.63 GB   2019-11-03 16:30 
   Агент Марні / Marnies Welt (2018) 1080p Ukr/Eng sergiyko.5  9 / 0   3.69 GB   2019-11-03 12:28 
mu4a4i 
Свій


З нами з: 05.11.10
Востаннє: 16.04.21
Повідомлень: 81

2021-03-11 22:35  
Мультфільм більше підходить для дітей, трішки не дотягує до сімейного. Роль персонажів та сюжет у ньому не дуже-то призначені для перегляду дорослою аудиторією. Не сподобався гумор та присутність сцен з прихованим сексуальним підтекстом
Ваш часовий пояс: GMT + 2 Години

Нова тема   Відповісти